本站已运行

蓝光高清网

搜索
开启左侧

玩具总动员 1995.2160p.BluRay.HEVC.TrueHD.7.1.Atmos-【杜比视界 蓝光原盘】4k电影下载—50.07GB

 
蓝鸟 发表于 2019-6-3 09:15:18 | 显示全部楼层 |阅读模式
玩具总动员(1995) 豆瓣评分: 8.3分
上映时间:1995年        影片时长:81分钟
类型:喜剧 动画 家庭 
地区:美国 
导演:约翰·拉塞特
主演:汤姆·汉克斯 / 蒂姆·艾伦 / 唐·里克斯 / 吉姆·法尼
画质标准:4K HDR  封装音轨:Dolby TrueHD 7.1 Dolby Atmos 
本帖最后由 蓝鸟 于 2021-12-27 20:05 编辑

简  介

  小仆人家境敷裕,具有一屋的玩具。其中他最爱的是牛仔玩偶胡迪,胡迪是以成为众玩具的“老迈”。当小仆人出门在外时,一屋的玩具自成天下,过着自己的生活。一天,小仆人带回了一个新的玩意:太空战警巴斯光年。巴斯光年长相新奇,功用先辈,令小仆人爱不释手,威胁到了胡迪的职位。胡迪想方设法要赶走巴斯,一不谨慎二人一路掉出了房间窗口外,邻人的恶狗在狂吠,邻人的小孩是一个玩具凌虐狂,胡迪巴斯能不能化敌为友,消灾解难?

获奖情况


  第68届奥斯卡金像奖(1996)
  最好原创剧本(提名) 乔斯·韦登 / 约翰·拉塞特 / 彼特·道格特 / 乔·兰福特 / 安德鲁·斯坦顿 / 乔尔·科恩 / 亚历克·索科洛
  音乐/笑剧片最好原创配乐(提名) 兰迪·纽曼
  最好原创歌曲(提名) 兰迪·纽曼
  出格成就奖 约翰·拉塞特

  第24届动画安妮奖(1996)
  最好动画长片
  最好导演 约翰·拉塞特
  最好编剧 乔斯·韦登 / 安德鲁·斯坦顿 / 亚历克·索科洛 / 乔尔·科恩
  最好配音(提名) 汤姆·汉克斯
  最好配乐 兰迪·纽曼
  最好建造 邦妮·阿诺德 / Ralph Guggenheim
  最好艺术指导 拉夫·埃格尔斯顿
  最好小我成就 彼特·道格特
  最好动画技术功效

影片参数
Video
ID                                       : 1
Format                                   : HEVC
Format/Info                              : High Efficiency Video Coding
Format profile                           : Main [email protected]@High
HDR format                               : Dolby Vision, Version 1.0, dvhe.05.06, BL+RPU
Codec ID                                 : V_MPEGH/ISO/HEVC
Duration                                 : 1 h 21 min
Bit rate                                 : 23.5 Mb/s
Width                                    : 3 840 pixels
Height                                   : 2 160 pixels
Display aspect ratio                     : 16:9
Frame rate mode                          : Constant
Frame rate                               : 23.976 (24000/1001/189150) FPS
Color space                              : YUV
Chroma subsampling                       : 4:2:0
Bit depth                                : 10 bits
Bits/(Pixel*Frame)                       : 0.118
Stream size                              : 13.3 GiB (74%)
Default                                  : Yes
Forced                                   : No


Audio #1
ID                                       : 2
Format                                   : MLP FBA 16-ch
Format/Info                              : Meridian Lossless Packing FBA with 16-channel presentation
Commercial name                          : Dolby TrueHD with Dolby Atmos
Codec ID                                 : A_TRUEHD
Duration                                 : 1 h 21 min
Bit rate mode                            : Variable
Bit rate                                 : 7 637 kb/s
Maximum bit rate                         : 9 612 kb/s
Channel(s)                               : 8 channels
Channel layout                           : L R C LFE Ls Rs Lb Rb
Sampling rate                            : 48.0 kHz
Frame rate                               : 1 200.000 FPS (40 SPF)
Compression mode                         : Lossless
Delay relative to video                  : 129 ms
Stream size                              : 4.33 GiB (24%)
Title                                    : TrueHD Atmos 7.1
Language                                 : English
Default                                  : Yes
Forced                                   : No
Number of dynamic objects                : 13
Bed channel count                        : 1 channel
Bed channel configuration                : LFE


Audio #2
ID                                       : 3
Format                                   : AC-3
Format/Info                              : Audio Coding 3
Commercial name                          : Dolby Digital
Format settings                          : Dolby Surround EX
Codec ID                                 : A_AC3
Duration                                 : 1 h 21 min
Bit rate mode                            : Constant
Bit rate                                 : 640 kb/s
Channel(s)                               : 6 channels
Channel layout                           : L R C LFE Ls Rs
Sampling rate                            : 48.0 kHz
Frame rate                               : 31.250 FPS (1536 SPF)
Compression mode                         : Lossy
Delay relative to video                  : 129 ms
Stream size                              : 371 MiB (2%)
Title                                    : AC3-EX 5.1
Language                                 : English
Service kind                             : Complete Main
Default                                  : No
Forced                                   : No


Text #1
ID                                       : 4
Format                                   : UTF-8
Codec ID                                 : S_TEXT/UTF8
Codec ID/Info                            : UTF-8 Plain Text
Duration                                 : 1 h 16 min
Bit rate                                 : 69 b/s
Count of elements                        : 1152
Stream size                              : 38.8 KiB (0%)
Language                                 : English
Default                                  : No
Forced                                   : No


Text #2
ID                                       : 5
Format                                   : UTF-8
Codec ID                                 : S_TEXT/UTF8
Codec ID/Info                            : UTF-8 Plain Text
Duration                                 : 1 h 18 min
Bit rate                                 : 89 b/s
Count of elements                        : 1433
Stream size                              : 50.9 KiB (0%)
Title                                    : SDH
Language                                 : English
Default                                  : No
Forced                                   : No


Text #3
ID                                       : 6
Format                                   : UTF-8
Codec ID                                 : S_TEXT/UTF8
Codec ID/Info                            : UTF-8 Plain Text
Duration                                 : 1 h 16 min
Bit rate                                 : 59 b/s
Count of elements                        : 1133
Stream size                              : 33.1 KiB (0%)
Title                                    : Simplified
Language                                 : Chinese
Default                                  : No
Forced                                   : No


Text #4
ID                                       : 7
Format                                   : UTF-8
Codec ID                                 : S_TEXT/UTF8
Codec ID/Info                            : UTF-8 Plain Text
Duration                                 : 1 h 16 min
Bit rate                                 : 60 b/s
Count of elements                        : 1132
Stream size                              : 33.9 KiB (0%)
Title                                    : Traditional
Language                                 : Chinese
Default                                  : No
Forced                                   : No


Text #5
ID                                       : 8
Format                                   : UTF-8
Codec ID                                 : S_TEXT/UTF8
Codec ID/Info                            : UTF-8 Plain Text
Duration                                 : 1 h 18 min
Bit rate                                 : 65 b/s
Count of elements                        : 1061
Stream size                              : 37.5 KiB (0%)
Title                                    : Latin American
Language                                 : Spanish
Default                                  : No
Forced                                   : No


Text #6
ID                                       : 9
Format                                   : UTF-8
Codec ID                                 : S_TEXT/UTF8
Codec ID/Info                            : UTF-8 Plain Text
Duration                                 : 1 h 18 min
Bit rate                                 : 53 b/s
Count of elements                        : 987
Stream size                              : 30.4 KiB (0%)
Title                                    : Canadian
Language                                 : French
Default                                  : No
Forced                                   : No


Text #7
ID                                       : 10
Format                                   : UTF-8
Codec ID                                 : S_TEXT/UTF8
Codec ID/Info                            : UTF-8 Plain Text
Duration                                 : 1 h 16 min
Bit rate                                 : 54 b/s
Count of elements                        : 1068
Stream size                              : 30.2 KiB (0%)
Language                                 : French
Default                                  : No
Forced                                   : No


Text #8
ID                                       : 11
Format                                   : UTF-8
Codec ID                                 : S_TEXT/UTF8
Codec ID/Info                            : UTF-8 Plain Text
Duration                                 : 1 h 18 min
Bit rate                                 : 61 b/s
Count of elements                        : 1149
Stream size                              : 35.2 KiB (0%)
Language                                 : Indonesian
Default                                  : No
Forced                                   : No


Text #9
ID                                       : 12
Format                                   : UTF-8
Codec ID                                 : S_TEXT/UTF8
Codec ID/Info                            : UTF-8 Plain Text
Duration                                 : 1 h 18 min
Bit rate                                 : 66 b/s
Count of elements                        : 1155
Stream size                              : 38.2 KiB (0%)
Language                                 : Malay
Default                                  : No
Forced                                   : No


Text #10
ID                                       : 13
Format                                   : UTF-8
Codec ID                                 : S_TEXT/UTF8
Codec ID/Info                            : UTF-8 Plain Text
Duration                                 : 1 h 16 min
Bit rate                                 : 43 b/s
Count of elements                        : 888
Stream size                              : 24.4 KiB (0%)
Language                                 : Dutch
Default                                  : No
Forced                                   : No


Text #11
ID                                       : 14
Format                                   : UTF-8
Codec ID                                 : S_TEXT/UTF8
Codec ID/Info                            : UTF-8 Plain Text
Duration                                 : 1 h 16 min
Bit rate                                 : 140 b/s
Count of elements                        : 1123
Stream size                              : 78.2 KiB (0%)
Language                                 : Thai
Default                                  : No
Forced                                   : No


Menu
00:00:00.129                             : en:Sheriff Woody
00:02:03.210                             : en:Opening Credits
00:04:01.078                             : en:The Coast Is Clear
00:06:34.981                             : en:The Staff Meeting
00:09:20.230                             : en:Recon Plan Charlie
00:14:17.944                             : en:Buzz Lightyear, Space Ranger
00:20:11.088                             : en:Strange Things
00:22:18.174                             : en:Woody vs. Buzz
00:24:25.551                             : en:Sid
00:26:02.189                             : en:Who Will Andy Pick?
00:29:29.897                             : en:Buzz Hitches a Ride
00:30:09.978                             : enost at the Gas Station
00:35:10.528                             : enizza Planet
00:39:26.367                             : en:Sid's House
00:43:00.415                             : en:Back at Andy's
00:43:44.292                             : enlaytime with Sid
00:46:26.662                             : en:The Buzz Lightyear Commercial
00:47:21.133                             : en:I Will Go Sailing No More
00:49:09.075                             : en:Hannah's Tea Party
00:51:09.111                             : en:Sid's Window to Andy's Window
00:53:50.898                             : en:The Big One
00:56:24.510                             : en:Andy Misses Woody
00:57:15.727                             : en:Buzz, I Can't Do This Without You
01:01:41.827                             : en:Woody Asks for Help
01:02:51.062                             : en:Wind the Frog
01:04:50.056                             : enlay Nice!
01:07:59.621                             : en:The Chase
01:13:11.265                             : en:Rocket Power
01:15:40.956                             : en:Christmas in Andy's New House
01:17:09.336                             : en:End Credits


精彩剧照

玩具总动员 1995.2160p 杜比全景声 多版本注意区分

玩具总动员 1995.2160p  杜比全景声  多版本注意区分

玩具总动员 1995.2160p 杜比全景声 多版本注意区分

玩具总动员 1995.2160p  杜比全景声  多版本注意区分


蓝光高清网提示您  点击下方附件名称  马上开始下载

多版本下载时请注意区分

玩具总动员 1995.2160p.BluRay.HEVC.TrueHD.7.1.Atmos-【杜比视界 蓝光原盘4k电影下载
玩具总动员 1995.2160p.BluRay.x265.10bit.SDR.DTS-HD.MA.TrueHD.7.1.Atmos 18.83GB

Toy.Story.1995.2160p.BluRay.x265.10bit.SDR.DTS-HD.MA.TrueHD.7.1.Atmos-SWTYBLZ.torrent ( 94.81 KB )



玩具总动员 1995.2160p.BluRay.x264.8bit.SDR.DTS-HD.MA.TrueHD.7.1.Atmos 17.40GB

Toy.Story.1995.2160p.BluRay.x264.8bit.SDR.DTS-HD.MA.TrueHD.7.1.Atmos-SWTYBLZ.torrent ( 87.64 KB )



玩具总动员 1995.2160p.BluRay.x265.10bit.HDR.DTS-HD.MA.TrueHD.7.1.Atmos 12.74GB

Toy.Story.1995.2160p.BluRay.x265.10bit.HDR.DTS-HD.MA.TrueHD.7.1.Atmos-SWTYBLZ.torrent ( 64.34 KB )



玩具总动员 1995.2160p.BluRay.HEVC.TrueHD.7.1.Atmos-BHD 57.07GB

Toy.Story.1995.2160p.BluRay.HEVC.TrueHD.7.1.Atmos-BHD.torrent ( 173.41 KB )



玩具总动员 1995.2160p.BluRay.REMUX.HEVC.DTS-HD.MA.TrueHD.7.1.Atmos-FGT 44.68GB

Toy.Story.1995.2160p.BluRay.REMUX.HEVC.DTS-HD.MA.TrueHD.7.1.Atmos-FGT.torrent ( 112.28 KB )



玩具总动员/反斗奇兵 Toy.Story.1995.2160p.WEB-DL.TrueHD.7.1.Atmos.DV.MKV.x265 杜比视界18.05G(2021年 12月27日更新)

Toy.Story.1995.2160p.WEB-DL.TrueHD.7.1.Atmos.DV.MKV.x265-NOSiViD.torrent ( 23.2 KB )



字幕格式:SRT
字幕下载:
游客,如果您要查看本帖隐藏内容请回复


更多动画系列专题合辑
https://www.4kpro.cn/topic-dhp.html


加入蓝光高清网VIP会员  无限制下载本站所有资源---点这里

资源下载、资源播放、字幕使用、无法下载等常见问题---点这里
回复

使用道具 举报

全部回复15 显示全部楼层
wwwttt1018 发表于 2019-6-3 09:37:22 | 显示全部楼层
找了好久 终于找到了  谢谢分享
回复 支持 反对

使用道具 举报

bobi8888 发表于 2019-6-6 06:07:11 | 显示全部楼层

好电影 谢谢楼主分享
回复 支持 反对

使用道具 举报

bobi8888 发表于 2019-6-6 06:07:35 | 显示全部楼层

好电影 谢谢楼主分享
回复 支持 反对

使用道具 举报

执念 发表于 2019-6-30 08:59:03 | 显示全部楼层
6666666666666666666666666
回复 支持 反对

使用道具 举报

farcan手机认证 发表于 2020-2-10 17:34:17 | 显示全部楼层
非常感谢蓝光高清网分享的各种知识和资源,祝蓝光高清网越来越好,大家新年快乐
回复 支持 反对

使用道具 举报

漂泊の旅人 发表于 2020-5-27 11:45:53 | 显示全部楼层
如果有中文配音的就好了,可以给小朋友看看
回复 支持 反对

使用道具 举报

Hansen 发表于 2020-8-17 08:55:20 | 显示全部楼层
适合孩子的好资源,顶一个!
回复 支持 反对

使用道具 举报

leequan 发表于 2020-8-28 12:32:12 | 显示全部楼层
感谢楼主分享
回复 支持 反对

使用道具 举报

heyong手机认证 发表于 2021-2-22 11:17:24 | 显示全部楼层
好电影 谢谢楼主分享
回复 支持 反对

使用道具 举报

发表回复

您需要登录后才可以回帖 登录 | 立即注册

本版积分规则