蓝光高清网

搜索
开启左侧

哥斯拉大战金刚 Godzilla.vs.Kong.2021.1080p.3D.BluRay.x264.DTS-HD.MA.7.1-FGT 17.45GB

 
蓝鸟 发表于 2021-7-15 10:17:35 | 显示全部楼层 |阅读模式
哥斯拉大战金刚 3D 豆瓣评分: 6.4分
片长: 113分钟 ( 2021年上映)
类型:动作 科幻 冒险 
导演:亚当·温加德
主演:亚历山大·斯卡斯加德 / 米莉·波比·布朗 / 丽贝卡·豪尔 / 凯莉·霍特尔 / 布莱恩·泰里·亨利
3 D 格式:hsbs half-ou sbs 

封装音轨:Dolby TrueHD 7.1 Dolby Atmos 
简  介5 c( _. s9 H7 Z; _

* O% E: O1 `! O) C  这两位宛如神衹一般强大的对手于一场壮观的战争中相遇,彼时世界命运正悬于一线。为了找到真正的家园,金刚与他的保护者们踏上了一次艰难的旅程。与他们一道前行的还有一个年轻的孤儿女孩——吉雅,这个女孩与金刚之间存在着一种独特而强大的紧密联系。但意想不到的是,他们在前行的航道上与愤怒的哥斯拉狭路相逢,也由此在全球引起了一系列破坏。一股无形的力量造成了这两只巨兽之间的巨大冲突,深藏在地心深处的奥秘也由此揭开。2 G) T& O0 K9 M% @. z$ C! Q

( h8 M) U+ k, C; B$ `2 x影片参数3 {3 W& u$ b0 e0 p0 _  v, f" o; D
Video
3 z+ R0 g6 ]9 u- L2 FID                                       : 1
1 Z& E% q" L: `# C( G: mFormat                                   : AVC. e% z: t. j7 `2 t( n7 |- {2 H
Format/Info                              : Advanced Video Codec4 b" r5 t7 _4 v
Format profile                           : [email protected]
' N# J! J- \% S) \- lFormat settings                          : CABAC / 3 Ref Frames; t8 h) ]' [: P* C4 {- P4 y. A  j
Format settings, CABAC                   : Yes
+ Y- X9 ?5 _. J" DFormat settings, Reference frames        : 3 frames6 Y6 b4 H+ v/ }3 d- x
Codec ID                                 : V_MPEG4/ISO/AVC8 _8 O" \3 ?' O. W% I" g7 A
Duration                                 : 1 h 53 min, m: K- X7 K) l& b
Bit rate                                 : 15.0 Mb/s
$ U) u: t" \6 \. F. O+ I8 L0 X( YNominal bit rate                         : 16.0 Mb/s2 ^: H& @8 ^2 ^# f! ]" A! H
Width                                    : 1 920 pixels: k- ^$ ~4 O) H6 ]; w5 n
Height                                   : 1 080 pixels- q* o9 A- _- T/ D
Display aspect ratio                     : 16:92 H( f5 V2 A1 u. Q4 y; C% ^
Frame rate mode                          : Constant
  d1 j! a* a1 _Frame rate                               : 23.976 (24000/1001/189150) FPS
/ h- Z  l* c) WColor space                              : YUV9 \1 s& }! Q# G3 U0 A# m
Chroma subsampling                       : 4:2:0
' U$ y  g" I4 c1 a/ C+ _' vBit depth                                : 8 bits5 P. L1 \- U1 k# I5 f
Scan type                                : Progressive" G6 _1 p  h8 F, S* ^5 \. Q! H
Bits/(Pixel*Frame)                       : 0.301+ X( ?/ L& S3 X7 a  D( U
Stream size                              : 11.8 GiB (64%)
9 G8 M* D9 a+ t& aWriting library                          : x264 core 148
( ~. l  S0 k$ m, lEncoding settings                        : cabac=1 / ref=3 / deblock=1:-1:-1 / analyse=0x3:0 / me=hex / subme=5 / psy=1 / psy_rd=1.00:0.00 / mixed_ref=0 / me_range=16 / chroma_me=1 / trellis=1 / 8x8dct=1 / cqm=0 / deadzone=21,11 / fast_pskip=0 / chroma_qp_offset=0 / threads=48 / lookahead_threads=8 / sliced_threads=0 / nr=0 / decimate=1 / interlaced=0 / bluray_compat=0 / constrained_intra=0 / bframes=2 / b_pyramid=0 / b_adapt=1 / b_bias=0 / direct=1 / weightb=0 / open_gop=0 / weightp=0 / keyint=24 / keyint_min=2 / scenecut=40 / intra_refresh=0 / rc_lookahead=6 / rc=cbr / mbtree=0 / bitrate=16000 / ratetol=1.0 / qcomp=0.60 / qpmin=0 / qpmax=69 / qpstep=4 / vbv_maxrate=16000 / vbv_bufsize=16000 / nal_hrd=none / filler=0 / ip_ratio=1.40 / pb_ratio=1.30 / aq=1:1.00
9 b+ @, N$ [" t, C: hDefault                                  : Yes2 A  w, S0 l: V* Y! ^7 c
Forced                                   : No, e: y1 f/ d0 X0 q
Color range                              : Limited
3 `& E# a* E6 }9 ]; `; v) R6 jColor primaries                          : BT.709
2 D- B8 s+ t+ |& A! o* PTransfer characteristics                 : BT.709
, c8 n: p* y. W/ DMatrix coefficients                      : BT.709
: P/ Y7 _1 Z" vAudio #1
) o- z, r( _% ^9 O" K' ~$ wID                                       : 26 z* l0 A! q) C" E& M% M1 v& A
Format                                   : DTS XLL
- H* b( G2 d" U  _Format/Info                              : Digital Theater Systems
7 ^% j+ K5 Q3 j' a/ p7 M* y, GCommercial name                          : DTS-HD Master Audio
  q+ D2 o7 y, UCodec ID                                 : A_DTS
" _: e& j  c" I* X0 ]. X) CDuration                                 : 1 h 53 min
6 B; Y( H% u$ Z9 R. VBit rate mode                            : Variable$ Z2 z; O5 S- ~! o
Bit rate                                 : 3 098 kb/s% T: T  g, C6 j/ G/ H5 ]3 b( H3 k
Channel(s)                               : 8 channels# O* |) u4 l4 f
Channel layout                           : C L R LFE Lb Rb Lss Rss4 |# q5 M; r$ f- S# q- @
Sampling rate                            : 48.0 kHz
+ |3 M  N  K0 bFrame rate                               : 93.750 FPS (512 SPF)" D: m/ l6 q6 Q
Bit depth                                : 16 bits& Z* C9 Y% {1 @  Z7 N
Compression mode                         : Lossless" ], _2 z2 @. e) p3 h/ W3 V
Stream size                              : 2.45 GiB (13%)  W# L0 G4 J1 M1 {
Title                                    : DTS-HD MA 7.1
: w3 D& s. {3 k% n) ALanguage                                 : English. j: ^9 e/ x0 T, Q! s
Default                                  : Yes& S1 r7 e1 V3 y# k" j
Forced                                   : No
  D# I. {; }) z& u+ x) AAudio #2' A6 b% N2 t* X
ID                                       : 3
% H5 ~; f$ Q9 a9 j1 |$ g1 p$ B- TFormat                                   : AC-32 [( O( B4 N! G# D# @3 ?  c
Format/Info                              : Audio Coding 3: h( l+ m3 J( G* m
Commercial name                          : Dolby Digital
% N% o9 S8 H7 G. m$ _$ rCodec ID                                 : A_AC3+ s2 {6 H7 v1 v- T, U
Duration                                 : 1 h 53 min
6 w, \- e. \$ L; }$ ^! r* o9 ^Bit rate mode                            : Constant/ L" E5 P8 }% U% S0 J! g2 @
Bit rate                                 : 640 kb/s
/ G' ]0 H( b& I4 l2 X# V4 ?Channel(s)                               : 6 channels+ \4 }4 g( B. ^: r" q
Channel layout                           : L R C LFE Ls Rs# \7 s, g: F/ a- l) e
Sampling rate                            : 48.0 kHz
9 W+ v" v' q- A+ I6 m& f$ lFrame rate                               : 31.250 FPS (1536 SPF)
; v6 C& c: M( T$ ~/ J2 z$ \Compression mode                         : Lossy' T$ F5 J: V" M- W. N' W
Stream size                              : 518 MiB (3%)
; {# i2 W: i+ nTitle                                    : DD 5.15 j9 k  p  X8 w1 c* D, Y8 W; i" ~( h
Language                                 : English  x( ~2 _5 s% W6 W1 x& c- F% p7 g
Service kind                             : Complete Main1 ^; q$ A! D1 L5 k% w
Default                                  : No
+ h0 r; i5 E* N4 S! R+ N0 R9 WForced                                   : No) Q& {& i7 ?# e
Audio #38 j& x/ y! h; B4 Y+ ^6 |# _
ID                                       : 4
. C% A% O" s  C% _; jFormat                                   : AC-3
$ H4 Y2 X- K0 \$ a5 g$ S0 {Format/Info                              : Audio Coding 30 J) V% E" z" g6 n! v) w
Commercial name                          : Dolby Digital/ i* d/ v; j9 C% l( x1 S
Codec ID                                 : A_AC3( O" o* c4 x6 R0 i8 ]* {
Duration                                 : 1 h 53 min% ~" s& ?9 }8 ^+ l7 S$ P& T
Bit rate mode                            : Constant
- }$ {+ Y9 _4 U  g( Z5 \; ^& dBit rate                                 : 640 kb/s( W! b2 h; c( Q* j  U, {9 [
Channel(s)                               : 6 channels
4 k+ o6 v0 X( |$ L: nChannel layout                           : L R C LFE Ls Rs
9 g/ n! k3 _, x  |( A' @: K3 ESampling rate                            : 48.0 kHz
& N, X" d5 ?( ^% C, |  XFrame rate                               : 31.250 FPS (1536 SPF); H( f7 Z  S$ r3 l
Compression mode                         : Lossy
+ [% e- M% @7 }% S; g; Z( M9 B; m  ?Stream size                              : 518 MiB (3%)2 {+ Y) B" D0 r% Y! [
Title                                    : DD 5.1
7 x. M/ T3 Z7 e* \& S7 r% n  h+ ZLanguage                                 : French8 Y& _3 U' ]: B  M* w4 I/ z
Service kind                             : Complete Main
2 e) G5 x- q) u3 o+ V2 aDefault                                  : No; b8 R+ @6 |! e5 _& P! k% H) P- t
Forced                                   : No
1 l+ \7 x) d0 I  G( X8 |Audio #4& c( Q: P1 a9 M
ID                                       : 5! b& f/ E" n* E8 C- j
Format                                   : DTS XLL" p( T; X: G) `! f$ x: J+ I1 M
Format/Info                              : Digital Theater Systems+ O( j0 y9 d' i+ j. I
Commercial name                          : DTS-HD Master Audio( M# J' q: m, [* J. i4 L% u
Codec ID                                 : A_DTS% X. Y: H. h" e7 v4 x9 j1 ^8 p) h
Duration                                 : 1 h 53 min' V! _+ i) o6 M& k- {. ~: v2 W
Bit rate mode                            : Variable
+ `" {& m9 t1 Q1 JBit rate                                 : 3 101 kb/s
: Z9 y. }1 C7 y2 n; Y' j( Y9 tChannel(s)                               : 8 channels; C. x. ?! E! b; |0 u
Channel layout                           : C L R LFE Lb Rb Lss Rss! u! I( N. e8 K
Sampling rate                            : 48.0 kHz
. H" q  H4 y* [Frame rate                               : 93.750 FPS (512 SPF)
; N5 I! C1 Y& n6 N7 j- YBit depth                                : 16 bits
$ X0 N8 a2 y: ECompression mode                         : Lossless
* A" `2 n" G7 A* X6 y7 lStream size                              : 2.45 GiB (13%)
$ O3 ^% _% i/ K) nTitle                                    : DTS-HD MA 7.1
: l% [; V7 C- D, c2 nLanguage                                 : German4 s  w; b/ D" |$ S, X
Default                                  : No7 ]$ Z" j5 \0 s; |: _" h: j8 M. g
Forced                                   : No
& o3 Q2 F. g) nAudio #5
) x& W$ Z# F! wID                                       : 6
3 l' b5 L: E: {" r& lFormat                                   : AC-33 @. H; A: H3 I; I$ P3 O" W
Format/Info                              : Audio Coding 35 @9 {  B( c, Z9 O3 U
Commercial name                          : Dolby Digital
5 j8 e/ p% x0 ?0 x. O7 HFormat settings                          : Dolby Surround
2 z" s0 E4 |6 x3 r) GCodec ID                                 : A_AC38 b% A! G1 O1 I5 t8 N/ v9 a5 j
Duration                                 : 1 h 53 min1 n; c% e  c/ e# `
Bit rate mode                            : Constant2 B1 \( I- J' t$ s
Bit rate                                 : 192 kb/s9 c1 q) j/ d" Y: q! R) }7 L+ e7 ?  Z6 t
Channel(s)                               : 2 channels
4 J7 R8 [2 F' K) L6 T( MChannel layout                           : L R
, x5 E6 R; N+ q0 XSampling rate                            : 48.0 kHz) {7 h0 x% K2 E8 s
Frame rate                               : 31.250 FPS (1536 SPF)
( A5 K' _: V3 c3 u5 ACompression mode                         : Lossy% v+ U" ~8 ?- s  J
Stream size                              : 155 MiB (1%)
. t" _2 l7 b" Z1 \Title                                    : DD 2.0/ B+ N0 r) x8 q& e/ x; }
Language                                 : German
+ B; p  u+ U8 LService kind                             : Complete Main
: S$ M+ ~$ ?+ U* V, CDefault                                  : No
. |' q+ t: _  rForced                                   : No
5 |1 C: T, h, n) m4 kAudio #6( Q- L' x8 M/ V$ s  o7 z
ID                                       : 70 S1 c4 J; ^1 N/ D* U
Format                                   : AC-3: ]; l! O1 S: M% D
Format/Info                              : Audio Coding 3
/ ]' V; T& d; Z! @' O& ]Commercial name                          : Dolby Digital" D! U/ I$ O6 m4 u$ ^  B$ r% K# `
Codec ID                                 : A_AC3
: g& {. S" J0 G2 CDuration                                 : 1 h 53 min1 V  s) S7 C! d) E9 U
Bit rate mode                            : Constant
( o7 K0 @- f# \: U7 x9 g0 r" [. rBit rate                                 : 640 kb/s' D) g8 A9 e; z9 U+ H
Channel(s)                               : 6 channels% F; N) B+ r9 Y6 z# T% \
Channel layout                           : L R C LFE Ls Rs& y/ {, l9 U( J/ i2 Y% p4 t2 p; c
Sampling rate                            : 48.0 kHz
! `1 f7 }7 L0 UFrame rate                               : 31.250 FPS (1536 SPF)# L: y0 k) K7 d& s
Compression mode                         : Lossy# x) H' Z" c# x' f' U, N) i
Stream size                              : 518 MiB (3%)
8 V' Z5 V" R# Z7 I* B$ ITitle                                    : DD 5.1
1 z4 ]" ^. l& W2 E& H8 E2 FLanguage                                 : Spanish* W  U2 p1 S( u2 T9 J# b
Service kind                             : Complete Main4 A" K6 S0 F* M7 w. C7 O/ L# T
Default                                  : No
. O3 U# A7 n) t5 V7 xForced                                   : No
1 a" Q9 A+ e! j6 ^) Z0 x/ h
image.png $ e  T7 I- O% o6 {/ t* E
( N/ K  V, r5 W; |
image.png
+ z! K% m: \9 U! V
  t% B5 |- y$ j1 S

! D2 C7 R- _* A: z+ L蓝光高清网提示您  点击下方附件名称  马上开始下载
4 _( S/ U- P' R! g. }
  z" s- i) f# z6 @1 U4 q! i多版本下载时请注意区分5 J7 Y+ U3 I! G, ?* L

: g& q, j0 M# r, E, E哥斯拉大战金刚 Godzilla.vs.Kong.2021.1080p.3D电影下载" V# K& B- g4 h" D/ G
0 z  h  }( c* g* W: I$ ^
哥斯拉大战金刚 Godzilla.vs.Kong.2021.1080p.3D.BluRay.Half-OU.x264.DTS-HD.MA.7.1-FGT 18.47GB $ f2 ~5 T4 v  w( C# Q, N/ O% S, H

Godzilla.vs.Kong.2021.1080p.3D.BluRay.Half-OU.x264.DTS-HD.MA.7.1-FGT.torrent ( 93.02 KB )

' I1 m1 Y( l% @9 h

8 b. o1 S4 R8 Y1 n哥斯拉大战金刚 Godzilla.vs.Kong.2021.1080p.3D.BluRay.Half-OU.x264.TrueHD.7.1.Atmos-FGT 19.16GB! S' o" }6 [, k+ h

Godzilla.vs.Kong.2021.1080p.3D.BluRay.Half-OU.x264.TrueHD.7.1.Atmos-FGT.torrent ( 96.46 KB )


$ A. F0 v: X# p. A% b

, z' _+ D$ i; @" j  d1 i哥斯拉大战金刚 Godzilla.vs.Kong.2021.1080p.3D.BluRay.Half-SBS.x264.DTS-HD.MA.7.1-FGT 17.45GB
  `6 x; W1 i0 D' U% s( b& R

Godzilla.vs.Kong.2021.1080p.3D.BluRay.Half-SBS.x264.DTS-HD.MA.7.1-FGT.torrent ( 87.92 KB )


5 n( O0 q& E2 F0 f( ~
) l1 j. y  ^) `7 I
哥斯拉大战金刚 Godzilla.vs.Kong.2021.1080p.3D.BluRay.Half-SBS.x264.TrueHD.7.1.Atmos-FGT 18.14GB
8 c& b# \8 ?( O9 \& P+ {& J' q

Godzilla.vs.Kong.2021.1080p.3D.BluRay.Half-SBS.x264.TrueHD.7.1.Atmos-FGT.torrent ( 91.36 KB )


2 P/ t/ g1 D, T* f$ {
5 ?7 [; R. t- G
加入蓝光高清网VIP会员  无限制下载本站所有资源---点这里

资源下载、资源播放、字幕使用、无法下载等常见问题---点这里
回复

使用道具 举报

全部回复23 显示全部楼层
+921445手机认证 发表于 2021-8-3 12:59:29 | 显示全部楼层
11111111111111111111111111111111111111
回复 支持 反对

使用道具 举报

我286252 发表于 2021-8-14 11:14:41 | 显示全部楼层
团结友爱鸿星尔克
回复 支持 反对

使用道具 举报

4kpro2xux7aZI手机认证 发表于 2021-9-6 13:00:48 来自手机 | 显示全部楼层
https://www.4kpro.cn/forum.php?mod=attachment&aid=NDk3NDQxfGEzZGIxNmE0fDE2MzA5MDQzMTJ8NTk0MTF8MTAyOTYw
回复 支持 反对

使用道具 举报

wangzhiping 发表于 2021-9-7 14:55:56 | 显示全部楼层
不会有这么好的资源吧
回复 支持 反对

使用道具 举报

自恋无用 发表于 2021-9-9 22:19:02 来自手机 | 显示全部楼层
真的吗,不会有这么好的资源吧
回复 支持 反对

使用道具 举报

gaoyang0712手机认证 发表于 2021-9-13 22:34:37 来自手机 | 显示全部楼层
太帅了帅了帅了帅了帅了吧
回复 支持 反对

使用道具 举报

大金空间设计-김 发表于 2021-9-14 21:25:37 来自手机 | 显示全部楼层
不敢想象
回复 支持 1 反对 0

使用道具 举报

周坚 发表于 2021-9-22 21:25:27 | 显示全部楼层
不敢想象
回复

使用道具 举报

4kprowlJAhL8F手机认证 发表于 2021-10-16 21:00:37 | 显示全部楼层
不敢想象
回复

使用道具 举报

发表回复

您需要登录后才可以回帖 登录 | 立即注册

本版积分规则

联系客服 关注微信 下载APP 返回顶部 返回列表