本站已运行

蓝光高清网

搜索
开启左侧

[科幻] 侏罗纪公园3 Jurassic.Park.III.2001.1080p.BluRay.x264.DTS-FGT 12.16GB

蓝鸟 发表于 2019-8-22 02:56:43 | 显示全部楼层 |阅读模式

侏罗纪公园3 Jurassic.Park.III.2001.1080p.BluRay.x264.DTS-FGT 12.16GB-1.jpg
◎译  名 侏罗纪公园3
◎片  名 Jurassic Park III
◎年  代 2001
◎国  家 美国
◎类  别 动作/冒险/科幻/惊悚
◎语  言 英语
◎上映日期 2001-07-18(美国)/2002-01-23(中国大陆)
◎IMDb评分  5.9/10 from 179,357 users
◎IMDb链接  http://www.imdb.com/title/tt0163025/
◎豆瓣评分 7.0/10 from 38,167 users
◎豆瓣链接 http://movie.douban.com/subject/1304643/
◎片  长 92 分钟
◎导  演 乔·庄斯顿 Joe Johnston
◎主  演 山姆·尼尔 Sam Neill
      威廉姆·H·梅西 William H. Macy
      蒂娅·里欧妮 Téa Leoni
      亚历桑德罗·尼沃拉 Alessandro Nivola
      特拉沃·摩根 Trevor Morgan
      迈克尔·杰特 Michael Jeter
◎简  介
  继索纳岛恐龙逃往事件过去已有八年,艾伦?格兰特博士(山姆?尼尔 Sam Neill 饰)无论如何也不愿再返回那个鬼地方。虽然发下重誓,但现状不得不让他收回誓言。他的一项史前动物研究陷入资金紧张的窘境。而这时,富有的商人保罗?科比(William H. Macy 饰)及其夫人阿曼达(Téa Leoni 饰)找到艾伦,邀请他作为向导带他们乘飞机前往索纳岛观光。一方面酬劳颇丰,一方面又得知不用着陆小岛,好了伤疤忘了疼的艾伦接受了他们的邀请。
  然而事情却朝相反的方向发展,他们的飞机最终迫降小岛。至此他才得知,原来科比夫妇来此的目的竟是为了寻找失踪的儿子。与此同时他还发现,经过八年的自然进化,恐龙中最聪明的速龙竟然拥有了自己赖以交流的语言。这一次他的对手不仅凶恶,而且更为狡猾……
Video
ID                                       : 1
Format                                   : AVC
Format/Info                              : Advanced Video Codec
Format profile                           : [email protected]
Format settings, CABAC                   : Yes
Format settings, ReFrames                : 4 frames
Codec ID                                 : V_MPEG4/ISO/AVC
Duration                                 : 1h 32mn
Bit rate                                 : 17.0 Mbps
Width                                    : 1 920 pixels
Height                                   : 1 040 pixels
Display aspect ratio                     : 1.85:1
Frame rate mode                          : Constant
Frame rate                               : 23.976 fps
Color space                              : YUV
Chroma subsampling                       : 4:2:0
Bit depth                                : 8 bits
Scan type                                : Progressive
Bits/(Pixel*Frame)                       : 0.354
Stream size                              : 10.9 GiB (90%)
Writing library                          : x264 core 140 r2377+40 929f149 tMod [[email protected]:2:0 X86_64]
Encoding settings                        : cabac=1 / ref=4 / deblock=1:-2:-2 / analyse=0x3:0x113 / me=umh / subme=11 / psy=1 / fade_compensate=0.00 / psy_rd=1.00:0.00 / mixed_ref=1 / me_range=48 / chroma_me=1 / trellis=2 / 8x8dct=1 / cqm=0 / deadzone=21,11 / fast_pskip=1 / chroma_qp_offset=-2 / threads=12 / lookahead_threads=3 / sliced_threads=0 / nr=0 / decimate=1 / interlaced=0 / bluray_compat=0 / constrained_intra=0 / fgo=0 / bframes=11 / b_pyramid=2 / b_adapt=2 / b_bias=0 / direct=3 / weightb=1 / open_gop=0 / weightp=2 / keyint=250 / keyint_min=23 / scenecut=40 / intra_refresh=0 / rc_lookahead=120 / rc=crf / mbtree=1 / crf=19.8000 / qcomp=0.80 / qpmin=0:0:0 / qpmax=69:69:69 / qpstep=4 / vbv_maxrate=62500 / vbv_bufsize=78125 / crf_max=0.0 / nal_hrd=none / filler=0 / ip_ratio=1.40 / aq=1:0.75 / aq-sensitivity=10.00 / aq-factor=1.00:1.00:1.00 / aq2=0 / aq3=0
Language                                 : English
Default                                  : Yes
Forced                                   : No
Color range                              : Limited
Color primaries                          : BT.709
Transfer characteristics                 : BT.709
Matrix coefficients                      : BT.709
Audio
ID                                       : 2
Format                                   : DTS
Format/Info                              : Digital Theater Systems
Mode                                     : 16
Format settings, Endianness              : Big
Codec ID                                 : A_DTS
Duration                                 : 1h 32mn
Bit rate mode                            : Constant
Bit rate                                 : 1 509 Kbps
Channel(s)                               : 6 channels
Channel positions                        : Front: L C R, Side: L R, LFE
Sampling rate                            : 48.0 KHz
Bit depth                                : 24 bits
Compression mode                         : Lossy
Stream size                              : 997 MiB (8%)
Language                                 : English
Default                                  : Yes
Forced                                   : No
Text #1
ID                                       : 3
Format                                   : UTF-8
Codec ID                                 : S_TEXT/UTF8
Codec ID/Info                            : UTF-8 Plain Text
Title                                    : SDH
Language                                 : English
Default                                  : No
Forced                                   : No
Text #2
ID                                       : 4
Format                                   : UTF-8
Codec ID                                 : S_TEXT/UTF8
Codec ID/Info                            : UTF-8 Plain Text
Language                                 : English
Default                                  : No
Forced                                   : No
Menu
00:00:00.000                             : enarasail Into Peril
00:04:11.793                             : en:The Dinosaur Man
00:12:43.721                             : en:The Kirby\ s Offer
00:17:26.795                             : en:Unhappy Landings
00:19:56.737                             : en:The Spinosaurous
00:26:27.294                             : enuel of the Dinosaurs
00:27:35.695                             : en:The Lost Boy
00:32:37.830                             : en:He\ s Alive...
00:36:13.045                             : en:The Nest
00:40:11.992                             : en:Raptors
00:44:32.211                             : en:Grant\ s Rescuer
00:53:06.516                             : en:Family Reunion
00:56:48.613                             : en:The Best Intentions
00:58:55.573                             : en:The Birdcage
01:03:00.693                             : en:Billy\ s Gamble
01:11:44.758                             : en:A Call for Help
01:14:53.322                             : en:A Father\ s Courage
01:18:44.219                             : en:Call of the Raptor
01:21:29.801                             : en:Going Home
01:24:28.229                             : en:End Titles

精彩剧照

侏罗纪公园3 Jurassic.Park.III.2001.1080p.BluRay.x264.DTS-FGT 12.16GB-2.jpg 侏罗纪公园3 Jurassic.Park.III.2001.1080p.BluRay.x264.DTS-FGT 12.16GB-3.jpg 侏罗纪公园3 Jurassic.Park.III.2001.1080p.BluRay.x264.DTS-FGT 12.16GB-4.jpg 侏罗纪公园3 Jurassic.Park.III.2001.1080p.BluRay.x264.DTS-FGT 12.16GB-5.jpg 侏罗纪公园3 Jurassic.Park.III.2001.1080p.BluRay.x264.DTS-FGT 12.16GB-6.jpg 侏罗纪公园3 Jurassic.Park.III.2001.1080p.BluRay.x264.DTS-FGT 12.16GB-7.jpg
                                       

蓝光高清网提示您 点击下方附件名称 马上开始下载

Jurassic.Park.III.2001.1080p.BluRay.x264.DTS-FGT.torrent ( 61.4 KB )



温馨提示:
本站资源优先使用迅雷下载,迅雷会员下载,速度基本可以跑满宽带
如果遇到无资源或者版权问题无法下载,推荐使用115网盘离线下载(点击查看115网盘离线下载教程


加入蓝光高清网VIP会员  无限制下载本站所有资源---点这里

资源下载、资源播放、字幕使用、无法下载等常见问题---点这里
回复

使用道具 举报

全部回复0 显示全部楼层

发表回复

您需要登录后才可以回帖 登录 | 立即注册

本版积分规则