本站已运行

蓝光高清网

搜索
开启左侧

[科幻] 侏罗纪公园2:失落的世界 The.Lost.World.Jurassic.Park.1997.1080p.BluRay.x264.DTS-FGT 12.14GB

蓝鸟 发表于 2019-8-22 02:57:35 | 显示全部楼层 |阅读模式

侏罗纪公园2:失落的世界 The.Lost.World.Jurassic.Park.1997.1080p.BluRay.x264.DTS-FGT 12.14GB-1.jpg
◎译  名 侏罗纪公园2:失落的世界/失落的世界:侏罗纪公园/迷失世界/侏罗纪公园II 迷失世界/侏罗纪公园2
◎片  名 The Lost World: Jurassic Park
◎年  代 1997
◎国  家 美国
◎类  别 动作/冒险/科幻/惊悚
◎语  言 英语/西班牙语
◎上映日期 1997-05-19(洛杉矶首映)/1997-05-23(美国)/1997-08-07(中国大陆)
◎IMDb评分  6.5/10 from 228,103 users
◎IMDb链接  http://www.imdb.com/title/tt0119567/
◎豆瓣评分 7.5/10 from 51,571 users
◎豆瓣链接 http://movie.douban.com/subject/1293702/
◎片  长 129 分钟
◎导  演 史蒂文·斯皮尔伯格 Steven Spielberg
◎主  演 杰夫·高布伦 Jeff Goldblum
      朱丽安·摩尔 Julianne Moore
      皮特·波斯尔思韦特 Pete Postlethwaite
      理查德·阿滕伯勒 Richard Attenborough
      文斯·沃恩 Vince Vaughn
◎简  介
  当年在努布拉岛营建侏罗纪公园时,约翰?哈蒙德(理查德?阿滕伯勒 Richard Attenborough 饰)曾把附近的索纳岛作为恐龙的制造工场。侏罗纪公园沦陷后,索纳岛上的恐龙在完全隔绝且缺少必要合成元素的情况下生存了4年时间。哈蒙德对此颇感好奇,他重新找到马科姆博士(杰夫?高布伦 Jeff Goldblum 饰),邀请他前往小岛考察。4年前经历让马科姆心有余悸,他断然拒绝哈蒙德的提议,但当得知女友莎拉(朱丽安?摩尔 Julianne Moore 饰)已前往小岛之时,只得跟随探险队整装出发。
  在索纳岛上,另一组野蛮的探险队已经先期到达,他们抓捕恐龙将其买到外国。利欲熏心使得这些贪婪之徒全然不顾危险,竟然打起暴龙的主意。索纳岛旋即变成恐怖的屠杀地狱……
◎获奖情况
  第70届奥斯卡金像奖 (1998)
  最佳视觉效果(提名) 斯坦·温斯顿 / 丹尼斯·穆伦 / 兰迪·杜特拉 / Michael Lantieri
Video
ID                                       : 1
Format                                   : AVC
Format/Info                              : Advanced Video Codec
Format profile                           : [email protected]
Format settings, CABAC                   : Yes
Format settings, ReFrames                : 4 frames
Codec ID                                 : V_MPEG4/ISO/AVC
Duration                                 : 2h 8mn
Bit rate                                 : 12.0 Mbps
Width                                    : 1 920 pixels
Height                                   : 1 040 pixels
Display aspect ratio                     : 1.85:1
Frame rate mode                          : Constant
Frame rate                               : 23.976 fps
Color space                              : YUV
Chroma subsampling                       : 4:2:0
Bit depth                                : 8 bits
Scan type                                : Progressive
Bits/(Pixel*Frame)                       : 0.251
Stream size                              : 10.5 GiB (87%)
Writing library                          : x264 core 115 r1936 7a9e08d
Encoding settings                        : cabac=1 / ref=4 / deblock=1:-1:-1 / analyse=0x3:0x133 / me=umh / subme=10 / psy=1 / psy_rd=1.00:0.10 / mixed_ref=1 / me_range=24 / chroma_me=1 / trellis=2 / 8x8dct=1 / cqm=0 / deadzone=21,11 / fast_pskip=0 / chroma_qp_offset=-3 / threads=9 / sliced_threads=0 / nr=0 / decimate=1 / interlaced=0 / bluray_compat=0 / constrained_intra=0 / bframes=12 / b_pyramid=2 / b_adapt=2 / b_bias=0 / direct=3 / weightb=1 / open_gop=0 / weightp=2 / keyint=250 / keyint_min=23 / scenecut=40 / intra_refresh=0 / rc_lookahead=50 / rc=2pass / mbtree=1 / bitrate=12000 / ratetol=1.0 / qcomp=0.70 / qpmin=0 / qpmax=69 / qpstep=4 / cplxblur=20.0 / qblur=0.5 / ip_ratio=1.40 / aq=1:1.00
Language                                 : English
Default                                  : Yes
Forced                                   : No
Audio
ID                                       : 2
Format                                   : DTS
Format/Info                              : Digital Theater Systems
Mode                                     : 16
Format settings, Endianness              : Big
Codec ID                                 : A_DTS
Duration                                 : 2h 8mn
Bit rate mode                            : Constant
Bit rate                                 : 1 509 Kbps
Channel(s)                               : 6 channels
Channel positions                        : Front: L C R, Side: L R, LFE
Sampling rate                            : 48.0 KHz
Bit depth                                : 24 bits
Compression mode                         : Lossy
Delay relative to video                  : 3ms
Stream size                              : 1.36 GiB (11%)
Language                                 : English
Default                                  : Yes
Forced                                   : No
Text
ID                                       : 3
Format                                   : UTF-8
Codec ID                                 : S_TEXT/UTF8
Codec ID/Info                            : UTF-8 Plain Text
Language                                 : English
Default                                  : No
Forced                                   : No

精彩剧照

侏罗纪公园2:失落的世界 The.Lost.World.Jurassic.Park.1997.1080p.BluRay.x264.DTS-FGT 12.14GB-2.jpg 侏罗纪公园2:失落的世界 The.Lost.World.Jurassic.Park.1997.1080p.BluRay.x264.DTS-FGT 12.14GB-3.jpg 侏罗纪公园2:失落的世界 The.Lost.World.Jurassic.Park.1997.1080p.BluRay.x264.DTS-FGT 12.14GB-4.jpg 侏罗纪公园2:失落的世界 The.Lost.World.Jurassic.Park.1997.1080p.BluRay.x264.DTS-FGT 12.14GB-5.jpg 侏罗纪公园2:失落的世界 The.Lost.World.Jurassic.Park.1997.1080p.BluRay.x264.DTS-FGT 12.14GB-6.jpg 侏罗纪公园2:失落的世界 The.Lost.World.Jurassic.Park.1997.1080p.BluRay.x264.DTS-FGT 12.14GB-7.jpg
                                       

蓝光高清网提示您 点击下方附件名称 马上开始下载

The.Lost.World.Jurassic.Park.1997.1080p.BluRay.x264.DTS-FGT.torrent ( 61.33 KB )



温馨提示:
本站资源优先使用迅雷下载,迅雷会员下载,速度基本可以跑满宽带
如果遇到无资源或者版权问题无法下载,推荐使用115网盘离线下载(点击查看115网盘离线下载教程


加入蓝光高清网VIP会员  无限制下载本站所有资源---点这里

资源下载、资源播放、字幕使用、无法下载等常见问题---点这里
回复

使用道具 举报

全部回复0 显示全部楼层

发表回复

您需要登录后才可以回帖 登录 | 立即注册

本版积分规则