本站已运行

蓝光高清网

搜索

[恐怖] 入侵隐私/寂屋出租/定居 The.Resident.2011.1080p.BluRay.x264-PSV 6.55GB

蓝鸟 发表于 2019-8-22 03:43:20 | 显示全部楼层 |阅读模式

? 入侵隐私/寂屋出租/定居 The.Resident.2011.1080p.BluRay.x264-PSV 6.55GB-1.jpg
◎译  名 入侵隐私/寂屋出租(台)/定居
◎片  名 The Resident
◎年  代 2011
◎国  家 英国/美国
◎类  别 剧情/恐怖/惊悚
◎语  言 英语
◎上映日期 2011-02-17
◎IMDb评分  5.2/10 from 19,795 users
◎IMDb链接  http://www.imdb.com/title/tt1334102/
◎豆瓣评分 5.3/10 from 1,630 users
◎豆瓣链接 http://movie.douban.com/subject/3319767/
◎片  长 91分钟
◎导  演 Antti Jokinen
◎主  演 Jeffrey Dean Morgan
      Hilary Swank
◎简  介
  和丈夫离婚后,朱丽叶(希拉里·斯万克 Hilary Swank 饰)的生活走入了低谷,为了重振士气,她决定搬家。新的环境,新的邻居,友好又善良的房东麦克斯(杰弗里·迪恩·摩根 Jeffrey Dean Morgan 饰),这一切让朱丽叶总算是解开了心中长久以来的郁结。
  随着时间的推移,一些奇怪的事情开始在朱丽叶的周围发生,预感告诉朱丽叶,有一个充满了邪恶气息的陌生人如影随形般地监视着自己的一举一动。为了找到幕后黑手,朱丽叶在房间里设置了录影机,真相让朱丽叶汗毛倒竖,原来,那个神出鬼没的不速之客竟然正是房东麦克斯。更糟糕的是,当朱丽叶拼尽全力企图接近真相之时,她也正在一步一步的走入麦克斯为她设下的圈套之中。
Video
ID                                       : 1
Format                                   : AVC
Format/Info                              : Advanced Video Codec
Format profile                           : [email protected]
Format settings, CABAC                   : Yes
Format settings, ReFrames                : 5 frames
Muxing mode                              : Header stripping
Codec ID                                 : V_MPEG4/ISO/AVC
Duration                                 : 1h 31mn
Bit rate                                 : 8 768 Kbps
Width                                    : 1 920 pixels
Height                                   : 816 pixels
Display aspect ratio                     : 2.35:1
Frame rate mode                          : Constant
Frame rate                               : 23.976 fps
Color space                              : YUV
Chroma subsampling                       : 4:2:0
Bit depth                                : 8 bits
Scan type                                : Progressive
Bits/(Pixel*Frame)                       : 0.233
Stream size                              : 5.46 GiB (83%)
Writing library                          : x264 core 113 r1884 7313bb5
Encoding settings                        : cabac=1 / ref=5 / deblock=1:-1:-1 / analyse=0x3:0x113 / me=umh / subme=7 / psy=1 / psy_rd=1.00:0.00 / mixed_ref=1 / me_range=16 / chroma_me=1 / trellis=1 / 8x8dct=1 / cqm=0 / deadzone=21,11 / fast_pskip=1 / chroma_qp_offset=-2 / threads=12 / sliced_threads=0 / nr=0 / decimate=1 / interlaced=0 / constrained_intra=0 / bframes=3 / b_pyramid=2 / b_adapt=2 / b_bias=0 / direct=3 / weightb=1 / open_gop=0 / weightp=2 / keyint=250 / keyint_min=23 / scenecut=40 / intra_refresh=0 / rc_lookahead=40 / rc=2pass / mbtree=1 / bitrate=8768 / ratetol=1.0 / qcomp=0.60 / qpmin=0 / qpmax=69 / qpstep=4 / cplxblur=20.0 / qblur=0.5 / vbv_maxrate=50000 / vbv_bufsize=50000 / nal_hrd=none / ip_ratio=1.40 / aq=1:1.00
Language                                 : English
Default                                  : Yes
Forced                                   : Yes
Audio
ID                                       : 2
Format                                   : DTS
Format/Info                              : Digital Theater Systems
Mode                                     : 16
Format settings, Endianness              : Big
Muxing mode                              : Header stripping
Codec ID                                 : A_DTS
Duration                                 : 1h 31mn
Bit rate mode                            : Constant
Bit rate                                 : 1 509 Kbps
Channel(s)                               : 6 channels
Channel positions                        : Front: L C R, Side: L R, LFE
Sampling rate                            : 48.0 KHz
Bit depth                                : 24 bits
Compression mode                         : Lossy
Stream size                              : 986 MiB (15%)
Language                                 : English
Default                                  : Yes
Forced                                   : Yes

精彩剧照

入侵隐私/寂屋出租/定居 The.Resident.2011.1080p.BluRay.x264-PSV 6.55GB-2.jpg 入侵隐私/寂屋出租/定居 The.Resident.2011.1080p.BluRay.x264-PSV 6.55GB-3.jpg 入侵隐私/寂屋出租/定居 The.Resident.2011.1080p.BluRay.x264-PSV 6.55GB-4.jpg 入侵隐私/寂屋出租/定居 The.Resident.2011.1080p.BluRay.x264-PSV 6.55GB-5.jpg 入侵隐私/寂屋出租/定居 The.Resident.2011.1080p.BluRay.x264-PSV 6.55GB-6.jpg 入侵隐私/寂屋出租/定居 The.Resident.2011.1080p.BluRay.x264-PSV 6.55GB-7.jpg                                                                                 


蓝光高清网提示您 点击下方附件名称 马上开始下载

The.Resident.2011.1080p.BluRay.x264-PSV.torrent ( 66.07 KB )



温馨提示:
本站资源优先使用迅雷下载,迅雷会员下载,速度基本可以跑满宽带
如果遇到无资源或者版权问题无法下载,推荐使用115网盘离线下载(点击查看115网盘离线下载教程


加入蓝光高清网VIP会员  无限制下载本站所有资源---点这里

资源下载、资源播放、字幕使用、无法下载等常见问题---点这里
回复

使用道具 举报

全部回复0 显示全部楼层

发表回复

您需要登录后才可以回帖 登录 | 立即注册

本版积分规则

楼主

超级版主

热门推荐

开通会员 帮助中心 返回顶部 返回列表