蓝光高清网

搜索
开启左侧

黑寡妇 Black.Widow.2021.IMAX.1080p.3D.BluRay.Half-SBS.x264.DTS-HD.MA.7.1-FGT 17.43G

   
蓝鸟 发表于 2021-9-22 09:33:16 | 显示全部楼层 |阅读模式
黑寡妇 豆瓣评分: 6.3分
片长: 133分钟 ( 2021年上映)
类型:动作 科幻 冒险 
导演:凯特·绍特兰
主演:斯嘉丽·约翰逊 / 弗洛伦丝·皮尤 / 蕾切尔·薇兹 / 大卫·哈伯 / 艾尔·安德森
3 D 格式:hsbs half-ou sbs 

封装音轨:DTS-HD.MA 7.1 
简       介! S/ k. X$ h. @" Y

5 A' p; x7 I% @, |% k0 ?# _  一部充满动作戏的间谍惊悚片。娜塔莎·罗曼诺夫/黑寡妇遭遇与她的过去相关的一场危险阴谋,将直面自己那些更为黑暗的经历。一股不惜一切要击倒她的力量袭来,娜塔莎必须面对自己在成为复仇者的很久之前那作为间谍的过往,和曾远离的破碎关系。
5 ?7 ?) Z. L8 w) k( R: t# `' I; }. Z9 P3 ~6 v' ]/ `7 x
, q9 _( Y; z; c/ W$ N. b
获奖情况" m( Q/ @8 X# y6 [
  第7届豆瓣电影年度榜单 ?(2020)6 k' Y- Z1 [7 z
  最值得期待的外语电影; k8 L) |+ o; F. C/ Q
  9 Y7 n( v7 i- y" Q% Z+ S7 p
  第6届豆瓣电影年度榜单 ?(2019)5 g4 ?: w- F3 X/ d2 @# |' n- \
  最值得期待的外语电影
1 F4 o& R3 M) R$ ~: u

/ W) k1 p. L% Y2 X8 }, d

" p+ d& d! j5 D影片参数
: C* s* e6 l" X6 r( k
Video2 z; E+ @7 `) R6 _
ID                                       : 1
/ }& W  n. \2 g- Z* O* j' M+ qFormat                                   : AVC
  D" I( j9 }  e+ N/ g- UFormat/Info                              : Advanced Video Codec& c1 O$ r+ r' B0 |8 d$ u
Format profile                           : [email protected]7 ?. e! q+ d0 k6 T5 Q
Format settings                          : CABAC / 3 Ref Frames
+ H9 L- u2 l7 }8 NFormat settings, CABAC                   : Yes: f+ l/ M3 o8 X, V1 R3 A
Format settings, Reference frames        : 3 frames
6 ^6 L* y- o7 W0 u( ]4 M; g5 gCodec ID                                 : V_MPEG4/ISO/AVC
1 W5 Z2 [# R  P! X, XDuration                                 : 2 h 13 min% `- k& e: q6 S+ p1 o2 }3 O- u
Bit rate                                 : 13.6 Mb/s
0 b" e: t5 c+ J* z& B' f  oNominal bit rate                         : 15.5 Mb/s# G7 x  T2 E$ G1 Q. |7 B
Width                                    : 1 920 pixels8 \" h9 T# o2 Q1 W3 V$ A5 @, k
Height                                   : 1 080 pixels# @6 O1 t3 n' _" w6 y
Display aspect ratio                     : 16:9' Y3 o0 T" K2 \9 f; u
Frame rate mode                          : Constant
2 N0 W, n6 A5 ?Frame rate                               : 23.976 (24000/1001/189150) FPS4 \; s: X$ s! P# w! X/ e) W$ F: b
Color space                              : YUV# B) t$ R" j4 p# u0 o4 d2 Z
Chroma subsampling                       : 4:2:0
1 W8 {" A8 B! k8 a0 F7 a# rBit depth                                : 8 bits( j. {4 B. }2 k, ^1 B0 L) D. ]
Scan type                                : Progressive5 D* F; R; F2 Y6 W2 I( \! q
Bits/(Pixel*Frame)                       : 0.274% K3 v3 E! y& I" X
Stream size                              : 12.7 GiB (73%)
5 z( {: E9 D5 tWriting library                          : x264 core 148
# g, V1 u  {  a- P2 H) b" m- WEncoding settings                        : cabac=1 / ref=3 / deblock=1:-1:-1 / analyse=0x3:0 / me=hex / subme=5 / psy=1 / psy_rd=1.00:0.00 / mixed_ref=0 / me_range=16 / chroma_me=1 / trellis=1 / 8x8dct=1 / cqm=0 / deadzone=21,11 / fast_pskip=0 / chroma_qp_offset=0 / threads=48 / lookahead_threads=8 / sliced_threads=0 / nr=0 / decimate=1 / interlaced=0 / bluray_compat=0 / constrained_intra=0 / bframes=2 / b_pyramid=0 / b_adapt=1 / b_bias=0 / direct=1 / weightb=0 / open_gop=0 / weightp=0 / keyint=24 / keyint_min=2 / scenecut=40 / intra_refresh=0 / rc_lookahead=6 / rc=cbr / mbtree=0 / bitrate=15500 / ratetol=1.0 / qcomp=0.60 / qpmin=0 / qpmax=69 / qpstep=4 / vbv_maxrate=15500 / vbv_bufsize=15500 / nal_hrd=none / filler=0 / ip_ratio=1.40 / pb_ratio=1.30 / aq=1:1.00. T& X* Y, X3 f: L
Default                                  : Yes+ k* H+ b% D' x. G- Y2 L9 h3 R
Forced                                   : No3 y  ]# j8 G; t: N, Q* S) n- k
Color range                              : Limited. b& C5 _$ M7 {/ I- e. E  t; d
Color primaries                          : BT.709: x8 U. F0 h' Q8 z% k5 [# T
Transfer characteristics                 : BT.7094 [- D) d# ^8 N5 {# A7 `
Matrix coefficients                      : BT.709. I# z1 G! O+ \; u0 r
Audio
9 R0 M; A% {# o6 Z5 e6 g" Y6 tID                                       : 2
- y6 q; w, T0 ~+ ?Format                                   : DTS XLL9 F' y$ Z* d* p$ s, N
Format/Info                              : Digital Theater Systems0 Y# }# T6 y0 L5 z  ~1 m- {
Commercial name                          : DTS-HD Master Audio2 a- F+ R  b  A/ R/ v8 k4 F
Codec ID                                 : A_DTS
5 s) g! F# f& U0 h- wDuration                                 : 2 h 13 min
  w( r( }" r+ h/ G3 j9 j6 ]Bit rate mode                            : Variable
0 v  Z: x* O. LBit rate                                 : 5 027 kb/s
4 a4 ~* R0 J6 `6 ?- x9 n" u' |Channel(s)                               : 8 channels
1 s3 H$ N' ~- m$ ~( X6 u& gChannel layout                           : C L R LFE Lb Rb Lss Rss
. q* p: s( ?. F* fSampling rate                            : 48.0 kHz$ O5 g3 ]1 u  B1 K1 m
Frame rate                               : 93.750 FPS (512 SPF). A1 o: c( l8 `. T
Bit depth                                : 24 bits
3 d5 ?! ^, o' G+ y9 S- ?Compression mode                         : Lossless' c  w4 J: F; E1 M
Stream size                              : 4.70 GiB (27%)7 s. J* r/ A6 y2 `) |1 q
Title                                    : DTS-HD MA 7.1
# Y: |' N; j6 F5 X# o& ^Language                                 : English4 x5 ?$ @/ {8 r" A
Default                                  : Yes7 ~: G) j! G* n6 J3 C1 Q# z
Forced                                   : No) t! ?5 ?; ?5 E& E. [
Text #1! W7 J& h4 E8 s/ C; x2 f- [2 f, o
ID                                       : 3/ o# `, I+ W$ E1 ]+ X6 _) O+ z
Format                                   : PGS. A5 Y& ~  L. y
Muxing mode                              : zlib1 r5 j% Z% [1 N  X& T8 K$ P: L
Codec ID                                 : S_HDMV/PGS
/ A4 C7 F, m3 r4 m. ZCodec ID/Info                            : Picture based subtitle format used on BDs/HD-DVDs
5 @) X  l6 s# I0 `Duration                                 : 2 h 12 min
3 P2 j, i% m6 TBit rate                                 : 34.3 kb/s# Y( c; X3 ~( E# K8 u+ p
Count of elements                        : 2584
8 P# _7 V4 V3 e- @. `Stream size                              : 32.5 MiB (0%)
3 [6 f) v+ @2 r2 E/ x3 x3 @Language                                 : English( _8 O3 d. U$ ~
Default                                  : Yes
) @7 E& ]9 S5 s5 o$ v1 E+ [Forced                                   : No
+ `1 [, X& z) iText #2: ?8 C/ ?$ h6 a/ l/ ]( ]2 r
ID                                       : 4! n" K' O$ m9 ^& l
Format                                   : PGS; w% C( A' M2 H- H2 c" r4 r
Muxing mode                              : zlib
: c8 ]1 U$ A0 C8 g, F' VCodec ID                                 : S_HDMV/PGS
7 A2 \) R" K. V& `Codec ID/Info                            : Picture based subtitle format used on BDs/HD-DVDs
& W" V( Q% R9 y9 n; E- VDuration                                 : 2 h 12 min3 `- r9 ^9 A: O$ h( g) m
Bit rate                                 : 26.5 kb/s8 ^9 M9 H* k2 V! H( |) y# R
Count of elements                        : 2512
. _3 k% r. {3 I  y+ N! sStream size                              : 25.1 MiB (0%)
9 u7 w+ L- Z! F- XLanguage                                 : Japanese
- e* R/ M+ q9 O3 FDefault                                  : No
0 H0 E& `% c2 P% E. x4 e! DForced                                   : No" P7 o) n6 O0 ^0 Q
Menu0 u$ ]7 e  H$ d9 Y( ~* L- N, L
00:00:00.000                             : Chapter 01
: x0 z. ]  d( |! d00:04:55.170                             : Chapter 02- R0 g; ]  o8 G9 A* `6 V
00:13:10.081                             : Chapter 03
4 w7 _% k; G5 s3 _" W00:16:24.567                             : Chapter 04; ^% q: ~2 \% S# m$ D4 F% a
00:18:41.871                             : Chapter 05
- s" x, e  l$ Z00:21:41.634                             : Chapter 06# z% G, ~' v/ g3 g
00:25:40.789                             : Chapter 075 e- J% N  y4 a; t; M8 F' N" \
00:30:06.346                             : Chapter 08; G& G* N# W+ h- l8 ~6 A
00:39:05.468                             : Chapter 09: K; L, G0 |9 }; ?
00:44:46.350                             : Chapter 10
5 [% m8 k: [+ i4 h" e0 R8 s00:53:25.994                             : Chapter 11+ I2 }/ B8 i7 ]; |9 @
01:01:38.153                             : Chapter 12
0 M2 y3 e% ^6 j. ?: H01:07:46.271                             : Chapter 13
  H+ C% t# F2 t; P01:11:40.671                             : Chapter 14
/ ~6 ]! n& a3 z01:17:48.789                             : Chapter 155 I6 w3 `! t& u! M7 w! ^
01:27:19.234                             : Chapter 16  j' U- @. \- B* q
01:33:33.441                             : Chapter 17
" H; J1 g# D8 x  _$ _# p- I01:37:37.477                             : Chapter 18  N: S$ o% ?2 q1 N8 ~4 ]5 m
01:41:18.656                             : Chapter 19
8 |2 p$ y! d/ u3 B2 Y+ \& B01:45:37.873                             : Chapter 20
1 J; _/ U9 s- v. }01:51:41.653                             : Chapter 21
1 \* ^' e) i8 _1 f2 S01:57:09.105                             : Chapter 22
  V2 u8 u& ?! h' k! R( r: e# F+ a02:01:59.687                             : Chapter 23
7 ?/ i/ L' U% q9 m- I# g% l0 B02:04:25.458                             : Chapter 24

7 Y4 W7 S: |+ f, B0 W2 }1 X2 ~/ ~0 ?$ u& a" ]# P7 `
207c90fcc96fd260fb7b4a31ac329fa3.png
3 K1 S" c( U( U 10d61d64ccb791f266d0c10111bcbd0f.png 7 Q* ?) n- N5 G  w
5a34fee8a91567e5830be84a9eac10f4.png
7 ]' Z, F1 {. e

  o5 p5 W# O1 e% i, W* ?3 C; b
4 I% y1 W/ Y8 X
蓝光高清网提示您  点击下方附件名称  马上开始下载0 Z4 k$ M0 M' O. J

1 i+ L& h$ }7 U多版本下载时请注意区分# ?5 J6 {1 u  l; v4 y0 v# S! `
# D; V6 N9 p- H+ x
黑寡妇 Black.Widow.2021.IMAX.1080p.3D.BluRay.Half-SBS.x264.DTS-HD.MA.7.1-FGT 17.43GB
2 y# m  J; J( m! ^7 ?& A5 O% g

Black.Widow.2021.IMAX.1080p.3D.BluRay.Half-SBS.x264.DTS-HD.MA.7.1-FGT.torrent ( 22.45 KB )


5 ^: U4 D$ N0 @$ G  V6 H5 [0 Z! M+ b2 l, S; X" M& L
黑寡妇 Black.Widow.2021.IMAX.1080p.3D.BluRay.Half-OU.x264.DTS-HD.MA.7.1-FGT 18.71GB, p4 ]( e; G' J- p* P/ _- ~# X

Black.Widow.2021.IMAX.1080p.3D.BluRay.Half-OU.x264.DTS-HD.MA.7.1-FGT.torrent ( 24.05 KB )

2 o. h1 m3 R' g( p+ P+ S
& X1 W3 b1 |* w5 `3 ^
黑寡妇 Black.Widow.2021.IMAX.1080p.3D.BluRay.Half-OU.x264.TrueHD.7.1.Atmos-FGT 18.68GB
9 r* W. H5 U( ~' @- G8 \9 b' o

Black.Widow.2021.IMAX.1080p.3D.BluRay.Half-OU.x264.TrueHD.7.1.Atmos-FGT.torrent ( 24.02 KB )

6 V0 W( t7 Z$ X9 ?+ }, O
" z% P' e) c# D4 F8 N
黑寡妇 Black.Widow.2021.IMAX.1080p.3D.BluRay.Half-SBS.x264.TrueHD.7.1.Atmos-FGT 17.40GB
2 D& x8 ]0 T7 h7 u

Black.Widow.2021.IMAX.1080p.3D.BluRay.Half-SBS.x264.TrueHD.7.1.Atmos-FGT.torrent ( 22.42 KB )

5 f6 ]3 e. \( T: \) t' _! r( \; H4 l
加入蓝光高清网VIP会员  无限制下载本站所有资源---点这里

资源下载、资源播放、字幕使用、无法下载等常见问题---点这里
回复

使用道具 举报

全部回复67 显示全部楼层
wuruhui手机认证 发表于 2021-9-25 21:04:49 来自手机 | 显示全部楼层
感谢分享!!!!!!
回复 支持 反对

使用道具 举报

4kpropWy9MS9n手机认证 发表于 2021-9-26 18:51:45 | 显示全部楼层
感谢分享!!!!!!
回复

使用道具 举报

lee800510手机认证 发表于 2021-9-28 12:37:54 | 显示全部楼层
请问这个有中文字幕吗
回复 支持 1 反对 0

使用道具 举报

杰克张 发表于 2021-10-6 05:36:24 | 显示全部楼层
谢谢分享,谢谢分享。
回复 支持 反对

使用道具 举报

FJZ 发表于 2021-10-9 21:25:36 来自手机 | 显示全部楼层
感谢分享
回复 支持 反对

使用道具 举报

15821681324手机认证 发表于 2021-10-13 23:18:39 来自手机 | 显示全部楼层
感谢了,辛苦了
回复 支持 反对

使用道具 举报

a62884788手机认证 发表于 2021-10-14 00:15:10 来自手机 | 显示全部楼层
感谢楼主分享
回复 支持 反对

使用道具 举报

惜缘_DTVG 发表于 2021-10-17 17:09:28 | 显示全部楼层
感谢蓝光高清网提供的优质资源,希望网站越办越好
回复 支持 反对

使用道具 举报

。CAVL 发表于 2021-10-24 14:25:54 | 显示全部楼层
很喜欢这部片子,可以有下载吗
回复 支持 1 反对 0

使用道具 举报

发表回复

您需要登录后才可以回帖 登录 | 立即注册

本版积分规则

联系客服 关注微信 下载APP 返回顶部 返回列表