本站已运行

蓝光高清网

搜索
开启左侧

黑寡妇 Black.Widow.2021.IMAX.1080p.3D.BluRay.Half-SBS.x264.DTS-HD.MA.7.1-FGT 17.43G

   
蓝鸟 发表于 2021-9-22 09:33:16 | 显示全部楼层 |阅读模式
黑寡妇 豆瓣评分: 6.3分
片长: 133分钟 ( 2021年上映)
类型:动作 科幻 冒险 
导演:凯特·绍特兰
主演:斯嘉丽·约翰逊 / 弗洛伦丝·皮尤 / 蕾切尔·薇兹 / 大卫·哈伯 / 艾尔·安德森
3 D 格式:hsbs half-ou sbs 

封装音轨:DTS-HD.MA 7.1 
简       介
, w1 I0 C3 {- g- B3 C0 s

7 A- o  Y9 W6 n" R2 Q  一部充满动作戏的间谍惊悚片。娜塔莎·罗曼诺夫/黑寡妇遭遇与她的过去相关的一场危险阴谋,将直面自己那些更为黑暗的经历。一股不惜一切要击倒她的力量袭来,娜塔莎必须面对自己在成为复仇者的很久之前那作为间谍的过往,和曾远离的破碎关系。
0 |' t* h% y& i  p" A) S, d$ a; w6 F4 p& O! k0 j% z* u/ f/ t
" t+ {: B! e; O5 k) G
获奖情况  x$ \" m% d$ t0 C9 v9 B
  第7届豆瓣电影年度榜单 ?(2020)
$ J( ^, I% b+ d9 A  S% V0 Q  最值得期待的外语电影/ V( d& ]& k: ^
  
7 c6 K* B; \  i  第6届豆瓣电影年度榜单 ?(2019)
1 K# T7 _& h: }% B" g8 q  最值得期待的外语电影
- e! p! J8 {4 j" {- Z6 L" W
5 P0 I, b; e5 t! S
8 M" r- b' ]9 l& n0 r% p7 ]* c
影片参数
" v+ j9 B% A9 [% J( k
Video
& D& k$ O% J) ?/ p8 PID                                       : 1
: \( Y5 C; \8 b; D7 p0 d3 r" cFormat                                   : AVC+ D/ M3 M) ~8 h: ~4 r' l
Format/Info                              : Advanced Video Codec
" ]4 V9 m( z( j* @% LFormat profile                           : [email protected]& `) T) X2 |% F- r( g6 I: @
Format settings                          : CABAC / 3 Ref Frames0 \+ I1 h* U1 F9 M: }: U
Format settings, CABAC                   : Yes
# Y. ^1 q) s$ W2 \  R3 |* S4 tFormat settings, Reference frames        : 3 frames
( S/ j3 v; o' D. [Codec ID                                 : V_MPEG4/ISO/AVC
' Z/ u* j/ z1 C/ _  s( G) {Duration                                 : 2 h 13 min1 V" H& {* p+ P* I+ c  M
Bit rate                                 : 13.6 Mb/s1 J, I: d# {2 _1 Z6 p
Nominal bit rate                         : 15.5 Mb/s
& ~! ]2 A" x; O0 q- HWidth                                    : 1 920 pixels' X7 b5 f# R3 W" w. \7 E/ p' F
Height                                   : 1 080 pixels
( B  m) ~2 J( j- L, W8 ~Display aspect ratio                     : 16:9
& _9 s) H: j7 d; b' BFrame rate mode                          : Constant
: y- n/ W7 d+ Y! ^: p; V! P, v3 [Frame rate                               : 23.976 (24000/1001/189150) FPS, i! E* A& x% r6 b# H; |
Color space                              : YUV* T: i! k8 p% k9 V7 Q# W- l
Chroma subsampling                       : 4:2:0
2 h) ^" B, Q6 w, }Bit depth                                : 8 bits
  p; L8 ?7 ~+ n$ M# lScan type                                : Progressive
7 w; @: I: P* N# o% m% [' ?7 \Bits/(Pixel*Frame)                       : 0.274
0 Q! D/ t) b/ t# RStream size                              : 12.7 GiB (73%)) A9 {/ I# h. B9 A( w3 O
Writing library                          : x264 core 148
8 j: l" C6 [5 ~Encoding settings                        : cabac=1 / ref=3 / deblock=1:-1:-1 / analyse=0x3:0 / me=hex / subme=5 / psy=1 / psy_rd=1.00:0.00 / mixed_ref=0 / me_range=16 / chroma_me=1 / trellis=1 / 8x8dct=1 / cqm=0 / deadzone=21,11 / fast_pskip=0 / chroma_qp_offset=0 / threads=48 / lookahead_threads=8 / sliced_threads=0 / nr=0 / decimate=1 / interlaced=0 / bluray_compat=0 / constrained_intra=0 / bframes=2 / b_pyramid=0 / b_adapt=1 / b_bias=0 / direct=1 / weightb=0 / open_gop=0 / weightp=0 / keyint=24 / keyint_min=2 / scenecut=40 / intra_refresh=0 / rc_lookahead=6 / rc=cbr / mbtree=0 / bitrate=15500 / ratetol=1.0 / qcomp=0.60 / qpmin=0 / qpmax=69 / qpstep=4 / vbv_maxrate=15500 / vbv_bufsize=15500 / nal_hrd=none / filler=0 / ip_ratio=1.40 / pb_ratio=1.30 / aq=1:1.000 ~3 |# f$ }& R0 D5 U
Default                                  : Yes
  J  |/ t6 `% P# o; U! `Forced                                   : No4 O$ B- ?; w7 p; U, j
Color range                              : Limited- L/ z4 k7 q9 W* Q+ S/ _" M
Color primaries                          : BT.709
1 A" T$ j2 F( a' a( w. y% ZTransfer characteristics                 : BT.709( s7 ^* C. t" F+ A) k
Matrix coefficients                      : BT.709& d' Y7 Z7 y6 S: @  k) n  }+ u6 K
Audio& E5 _- Q# H* J% p8 Y$ ]4 s
ID                                       : 2+ t' w- g8 m" a; ?) x8 s
Format                                   : DTS XLL8 ?+ S' e# v7 H6 K) g* ~% w0 t6 r
Format/Info                              : Digital Theater Systems7 E0 ]& A5 s" _* y% T' |
Commercial name                          : DTS-HD Master Audio3 I, I3 I: M% Y2 A8 B
Codec ID                                 : A_DTS+ O  |2 F) F" n$ x) G7 }2 y( E% |
Duration                                 : 2 h 13 min
* M* A* @1 ]7 O3 ZBit rate mode                            : Variable
; J. V& @: v5 c& }# I' X9 \Bit rate                                 : 5 027 kb/s+ N3 \( c& P% H
Channel(s)                               : 8 channels
* s7 ~0 B: b$ X% O6 @2 nChannel layout                           : C L R LFE Lb Rb Lss Rss8 W2 `3 Q3 I4 n
Sampling rate                            : 48.0 kHz
  m" i( ~( b! s- R* t6 oFrame rate                               : 93.750 FPS (512 SPF)
( X1 U5 I& Q  |* l9 t: y. ~$ ZBit depth                                : 24 bits
  B0 c2 h# b* {' tCompression mode                         : Lossless8 l1 S7 D, T" \8 a# n( I5 }7 s/ E, M5 A
Stream size                              : 4.70 GiB (27%)
5 ?8 ]/ z; F/ k1 x; \( aTitle                                    : DTS-HD MA 7.1
0 f2 c) g  J9 q  tLanguage                                 : English  f- h2 }. _" i7 n/ n+ T) b& z. b
Default                                  : Yes
! I$ }% n: {! N+ d, M" TForced                                   : No1 k! h/ q/ G# a2 |1 y6 V
Text #1
. h+ |$ M3 Y4 n0 ~  @ID                                       : 3
) _, \; ]7 S2 z7 AFormat                                   : PGS, }) @. }+ ~8 W4 O+ X, k
Muxing mode                              : zlib- R6 x& e: M8 p4 v7 E' m- G: l6 z
Codec ID                                 : S_HDMV/PGS; W8 t4 @( X: k3 a% J; D6 J& M
Codec ID/Info                            : Picture based subtitle format used on BDs/HD-DVDs
6 e, T/ v  L0 }) f6 ?% UDuration                                 : 2 h 12 min0 ]8 @' k5 @7 h5 W$ C  G
Bit rate                                 : 34.3 kb/s
! U7 h4 k9 v: }/ M$ x" {' cCount of elements                        : 25848 e* f! N2 J) N7 n
Stream size                              : 32.5 MiB (0%)
& M. e# k8 {- cLanguage                                 : English
' s0 y1 n: E# |' I4 pDefault                                  : Yes! l" v; z( O: H5 b  S2 _
Forced                                   : No
8 T! `& X1 i7 r: w! M  d& W' AText #2
# @4 U, P8 M0 N+ @ID                                       : 4* R9 v4 l( r* M
Format                                   : PGS0 j# Y1 y' p2 W  X
Muxing mode                              : zlib
+ L$ H8 h6 h' v& e- ICodec ID                                 : S_HDMV/PGS
" R( X. C! L' x, \* l( N+ }& JCodec ID/Info                            : Picture based subtitle format used on BDs/HD-DVDs, n/ z4 a0 J6 @* q3 k
Duration                                 : 2 h 12 min
/ o- t+ A  m- x, i, {+ b0 tBit rate                                 : 26.5 kb/s; F- V# Z8 F# @6 E6 I; l
Count of elements                        : 2512
% I" L7 s! r0 E1 ZStream size                              : 25.1 MiB (0%)
. k6 f7 H& v6 T/ lLanguage                                 : Japanese
6 b! w: U( |7 T* ?Default                                  : No
* d5 w- @. O! \: }Forced                                   : No
7 {: R0 l8 d* u/ {5 bMenu
8 T/ d/ a' V% ?. F7 r# ^" Y- G00:00:00.000                             : Chapter 01
$ C  }) D* K8 Q- n: k/ j- ]00:04:55.170                             : Chapter 026 i" V, ^3 E2 n3 ^8 g; N; t
00:13:10.081                             : Chapter 03
0 f4 v5 P4 Q) }/ v$ @00:16:24.567                             : Chapter 043 M/ Z+ C2 \4 p4 \! E+ N: |
00:18:41.871                             : Chapter 05. {& [) A) s# W# D9 B
00:21:41.634                             : Chapter 06
) l: H3 C$ Z7 w; ]8 S00:25:40.789                             : Chapter 07
1 z+ {4 W+ Q5 i4 L, p% t00:30:06.346                             : Chapter 08% z5 J6 D+ s7 ~' q
00:39:05.468                             : Chapter 09
- y% Q4 x% W+ \( t7 p00:44:46.350                             : Chapter 10; v# v( c. P1 L8 S- p+ D3 u
00:53:25.994                             : Chapter 113 W7 Y, g  H2 X" T# E+ E  ]& m! w* O
01:01:38.153                             : Chapter 12" Q8 I2 R0 F5 r& z; [6 ]- {6 a
01:07:46.271                             : Chapter 13- T7 F2 U0 I% L0 O% m# U) \
01:11:40.671                             : Chapter 14
0 Q& R) F3 }! c/ o  V, z01:17:48.789                             : Chapter 156 ]1 u: D$ ?4 u3 S
01:27:19.234                             : Chapter 162 v6 Q( V2 V! ^  U
01:33:33.441                             : Chapter 178 F/ b7 O8 @" H4 k# Y7 L( X
01:37:37.477                             : Chapter 18* q# z# l# b! t/ H  T4 a! a: A6 L
01:41:18.656                             : Chapter 19
5 o- i; {( U0 E* x0 }01:45:37.873                             : Chapter 209 K2 q: o' ]% X* p2 k/ V
01:51:41.653                             : Chapter 21
% \; n9 r% {3 x7 R  w; l8 ]4 Q01:57:09.105                             : Chapter 22
$ ^3 M. d; K5 H5 K9 v9 M, C+ Q02:01:59.687                             : Chapter 23
; M: D9 w* ?9 w7 I& i02:04:25.458                             : Chapter 24

5 R8 F. g7 @7 q) R% B7 ^$ R
+ P3 N; I. Q) P3 J. V: e! j
207c90fcc96fd260fb7b4a31ac329fa3.png
& L( N) O) J; \$ e" R 10d61d64ccb791f266d0c10111bcbd0f.png : K/ q5 f  m) _& a! ^: X" {' G+ K
5a34fee8a91567e5830be84a9eac10f4.png
$ q- p' T( W# ^

6 q! x  j' n$ ~9 o

& H, ~7 W( J5 T6 m蓝光高清网提示您  点击下方附件名称  马上开始下载
6 w: Q. d6 L6 G8 `& V# H) {

" [" G; U5 P5 a/ {! i0 u1 y: Y& y多版本下载时请注意区分6 R( g- i( G1 v' S
. F# \2 |+ x1 |8 l6 k  _7 i; S6 [
黑寡妇 Black.Widow.2021.IMAX.1080p.3D.BluRay.Half-SBS.x264.DTS-HD.MA.7.1-FGT 17.43GB! Y4 Z& I: y5 D+ c; R/ H  w

Black.Widow.2021.IMAX.1080p.3D.BluRay.Half-SBS.x264.DTS-HD.MA.7.1-FGT.torrent ( 22.45 KB )


. Q8 u( P5 g' y+ d$ w; \
( u# z1 {6 |* {/ s4 ?# I* E, c黑寡妇 Black.Widow.2021.IMAX.1080p.3D.BluRay.Half-OU.x264.DTS-HD.MA.7.1-FGT 18.71GB
  A8 N( o. F' Y

Black.Widow.2021.IMAX.1080p.3D.BluRay.Half-OU.x264.DTS-HD.MA.7.1-FGT.torrent ( 24.05 KB )

6 R' _8 {9 Z, L/ @
( d) j  j; {! ^) u- a: J
黑寡妇 Black.Widow.2021.IMAX.1080p.3D.BluRay.Half-OU.x264.TrueHD.7.1.Atmos-FGT 18.68GB
& N  p* f/ G0 x' M# P# r

Black.Widow.2021.IMAX.1080p.3D.BluRay.Half-OU.x264.TrueHD.7.1.Atmos-FGT.torrent ( 24.02 KB )


! a3 G  O8 j9 F; t+ V0 l8 e: ^
( S, ~( G; x  E( w黑寡妇 Black.Widow.2021.IMAX.1080p.3D.BluRay.Half-SBS.x264.TrueHD.7.1.Atmos-FGT 17.40GB
( l, V1 G" W! ^

Black.Widow.2021.IMAX.1080p.3D.BluRay.Half-SBS.x264.TrueHD.7.1.Atmos-FGT.torrent ( 22.42 KB )

1 J, N6 U: R* b6 b1 i( p
加入蓝光高清网VIP会员  无限制下载本站所有资源---点这里

资源下载、资源播放、字幕使用、无法下载等常见问题---点这里
回复

使用道具 举报

全部回复70 显示全部楼层
wuruhui手机认证 发表于 2021-9-25 21:04:49 来自手机 | 显示全部楼层
感谢分享!!!!!!
回复 支持 反对

使用道具 举报

4kpropWy9MS9n手机认证 发表于 2021-9-26 18:51:45 | 显示全部楼层
感谢分享!!!!!!
回复

使用道具 举报

lee800510手机认证 发表于 2021-9-28 12:37:54 | 显示全部楼层
请问这个有中文字幕吗
回复 支持 1 反对 0

使用道具 举报

杰克张 发表于 2021-10-6 05:36:24 | 显示全部楼层
谢谢分享,谢谢分享。
回复 支持 反对

使用道具 举报

FJZ 发表于 2021-10-9 21:25:36 来自手机 | 显示全部楼层
感谢分享
回复 支持 反对

使用道具 举报

15821681324手机认证 发表于 2021-10-13 23:18:39 来自手机 | 显示全部楼层
感谢了,辛苦了
回复 支持 反对

使用道具 举报

a62884788手机认证 发表于 2021-10-14 00:15:10 来自手机 | 显示全部楼层
感谢楼主分享
回复 支持 反对

使用道具 举报

惜缘_DTVG 发表于 2021-10-17 17:09:28 | 显示全部楼层
感谢蓝光高清网提供的优质资源,希望网站越办越好
回复 支持 反对

使用道具 举报

。CAVL 发表于 2021-10-24 14:25:54 | 显示全部楼层
很喜欢这部片子,可以有下载吗
回复 支持 1 反对 0

使用道具 举报

发表回复

您需要登录后才可以回帖 登录 | 立即注册

本版积分规则

开通会员 帮助中心 返回顶部 返回列表