本站已运行

蓝光高清网

搜索
开启左侧

[喜剧] 笨人晚宴/愚人晚宴 Dinner.for.Schmucks.2010.1080p.BluRay.x264.DTS-FGT 13.18GB

蓝鸟 发表于 2019-8-22 04:11:04 | 显示全部楼层 |阅读模式

? 笨人晚宴/愚人晚宴 Dinner.for.Schmucks.2010.1080p.BluRay.x264.DTS-FGT 13.18GB-1.jpg
◎译  名 笨人晚宴/愚人晚宴
◎片  名 Dinner for Schmucks
◎年  代 2010
◎国  家 美国
◎类  别 喜剧
◎语  言 英语
◎上映日期 2010-07-30
◎IMDb评分  5.9/10 from 73,540 users
◎IMDb链接  http://www.imdb.com/title/tt0427152/
◎豆瓣评分 6.8/10 from 8,397 users
◎豆瓣链接 http://movie.douban.com/subject/2257738/
◎片  长 114 分钟
◎导  演 杰伊·罗奇 Jay Roach
◎主  演 保罗·路德 Paul Rudd
      史蒂夫·卡瑞尔 Steve Carell
      扎克·加利凡纳基斯 Zach Galifianakis
      布鲁斯·格林伍德 Bruce Greenwood
◎简  介
  本片根据1998年的法国电影《Le Diner de Cons》改编而成。
  蒂姆·瓦格纳(保罗·路德 Paul Rudd 饰)为了讨好上司,从而顺利升职,参加了一个被称为 白痴之宴 的活动,目的就是成功的寻找到一个完美的同伴共赴晚餐,届时看谁的同伴是白痴中的白痴。蒂姆找来了看上去很傻的国税局雇员巴里(史蒂夫·卡瑞尔 Steve Carell 饰)担当他的同伴,去竞选那个 白痴之最 的称号,以便逗乐老板。但是,哪里想到,阴差阳错的事情发生了,巴里虽然确实白痴,但是却意外的让蒂姆的老板同样出丑,在这场晚宴制造了不小的风波,蒂姆该如何收场?到底谁才是真正的白痴极品?
Video
ID                                       : 1
Format                                   : AVC
Format/Info                              : Advanced Video Codec
Format profile                           : [email protected]
Format settings, CABAC                   : Yes
Format settings, ReFrames                : 4 frames
Codec ID                                 : V_MPEG4/ISO/AVC
Duration                                 : 1h 54mn
Bit rate                                 : 15.0 Mbps
Width                                    : 1 920 pixels
Height                                   : 1 080 pixels
Display aspect ratio                     : 16:9
Frame rate mode                          : Constant
Frame rate                               : 23.976 fps
Color space                              : YUV
Chroma subsampling                       : 4:2:0
Bit depth                                : 8 bits
Scan type                                : Progressive
Bits/(Pixel*Frame)                       : 0.303
Stream size                              : 11.7 GiB (89%)
Writing library                          : x264 core 112 r1834 a51816a
Encoding settings                        : cabac=1 / ref=4 / deblock=1:-3:-3 / analyse=0x3:0x133 / me=umh / subme=10 / psy=1 / psy_rd=1.00:0.00 / mixed_ref=1 / me_range=64 / chroma_me=0 / trellis=2 / 8x8dct=1 / cqm=0 / deadzone=21,11 / fast_pskip=0 / chroma_qp_offset=-2 / threads=12 / sliced_threads=0 / nr=0 / decimate=0 / interlaced=0 / constrained_intra=0 / bframes=9 / b_pyramid=2 / b_adapt=2 / b_bias=0 / direct=3 / weightb=1 / open_gop=0 / weightp=2 / keyint=250 / keyint_min=23 / scenecut=40 / intra_refresh=0 / rc=2pass / mbtree=0 / bitrate=15047 / ratetol=1.0 / qcomp=0.60 / qpmin=10 / qpmax=51 / qpstep=4 / cplxblur=20.0 / qblur=0.5 / ip_ratio=1.40 / pb_ratio=1.30 / aq=2:0.50
Language                                 : English
Default                                  : Yes
Forced                                   : No
Audio
ID                                       : 2
Format                                   : DTS
Format/Info                              : Digital Theater Systems
Mode                                     : 16
Format settings, Endianness              : Big
Codec ID                                 : A_DTS
Duration                                 : 1h 54mn
Bit rate mode                            : Constant
Bit rate                                 : 1 509 Kbps
Channel(s)                               : 6 channels
Channel positions                        : Front: L C R, Side: L R, LFE
Sampling rate                            : 48.0 KHz
Bit depth                                : 24 bits
Compression mode                         : Lossy
Stream size                              : 1.20 GiB (9%)
Language                                 : English
Default                                  : Yes
Forced                                   : No
Text
ID                                       : 3
Format                                   : UTF-8
Codec ID                                 : S_TEXT/UTF8
Codec ID/Info                            : UTF-8 Plain Text
Language                                 : English
Default                                  : No
Forced                                   : No
Menu
00:00:00.000                             : en:00:00:00.000
00:05:00.842                             : en:00:05:00.842
00:10:28.086                             : en:00:10:28.086
00:14:39.170                             : en:00:14:39.170
00:20:46.787                             : en:00:20:46.787
00:23:34.705                             : en:00:23:34.705
00:26:37.513                             : en:00:26:37.513
00:32:59.019                             : en:00:32:59.019
00:36:04.454                             : en:00:36:04.454
00:42:03.312                             : en:00:42:03.312
00:50:27.608                             : en:00:50:27.608
00:55:19.149                             : en:00:55:19.149
01:00:16.363                             : en:01:00:16.363
01:11:34.957                             : en:01:11:34.957
01:20:09.346                             : en:01:20:09.346
01:32:34.174                             : en:01:32:34.174
01:43:02.218                             : en:01:43:02.218
01:47:47.670                             : en:01:47:47.670

精彩剧照

笨人晚宴/愚人晚宴 Dinner.for.Schmucks.2010.1080p.BluRay.x264.DTS-FGT 13.18GB-2.jpg 笨人晚宴/愚人晚宴 Dinner.for.Schmucks.2010.1080p.BluRay.x264.DTS-FGT 13.18GB-3.jpg 笨人晚宴/愚人晚宴 Dinner.for.Schmucks.2010.1080p.BluRay.x264.DTS-FGT 13.18GB-4.jpg 笨人晚宴/愚人晚宴 Dinner.for.Schmucks.2010.1080p.BluRay.x264.DTS-FGT 13.18GB-5.jpg 笨人晚宴/愚人晚宴 Dinner.for.Schmucks.2010.1080p.BluRay.x264.DTS-FGT 13.18GB-6.jpg 笨人晚宴/愚人晚宴 Dinner.for.Schmucks.2010.1080p.BluRay.x264.DTS-FGT 13.18GB-7.jpg                                                                                 


蓝光高清网提示您 点击下方附件名称 马上开始下载

Dinner.for.Schmucks.2010.1080p.BluRay.x264.DTS-FGT.torrent ( 66.5 KB )



温馨提示:
本站资源优先使用迅雷下载,迅雷会员下载,速度基本可以跑满宽带
如果遇到无资源或者版权问题无法下载,推荐使用115网盘离线下载(点击查看115网盘离线下载教程


加入蓝光高清网VIP会员  无限制下载本站所有资源---点这里

资源下载、资源播放、字幕使用、无法下载等常见问题---点这里
回复

使用道具 举报

全部回复0 显示全部楼层

发表回复

您需要登录后才可以回帖 登录 | 立即注册

本版积分规则