蓝光高清网

搜索
开启左侧

[8K视频] 60FPS 8K VIDEO ULTRA HD HDR - Nature is the art of God 3.79GB

4k演示 发表于 2021-9-27 11:49:01 | 显示全部楼层 |阅读模式
18. 8K VIDEO ULTRA HD HDR - Nature is the art of God 60FPS.jpg


影片参数
General
Complete name                  : E:\CRTubeGet Downloaded\Mix - 8K World\18. 8K VIDEO ULTRA HD HDR - Nature is the art of God 60FPS.mp4
Format                         : MPEG-4
Format profile                 : Base Media
Codec ID                       : isom (isom/iso2/mp41)
File size                      : 3.80 GiB
Duration                       : 20 min 7 s
Overall bit rate               : 27.0 Mb/s
Writing application            : Lavf58.29.100


Video
ID                             : 1
Format                         : AV1
Format/Info                    : AOMedia Video 1
Format profile                 : Main@L6.1
Codec ID                       : av01
Duration                       : 20 min 7 s
Bit rate                       : 26.9 Mb/s
Width                          : 7 680 pixels
Height                         : 4 320 pixels
Display aspect ratio           : 16:9
Frame rate mode                : Constant
Frame rate                     : 60.000 FPS
Color space                    : YUV
Chroma subsampling             : 4:2:0
Bit depth                      : 8 bits
Bits/(Pixel*Frame)             : 0.014
Stream size                    : 3.78 GiB (99%)
Title                          : ISO Media file produced by Google Inc.
Color range                    : Limited
Color primaries                : BT.709
Transfer characteristics       : BT.709
Matrix coefficients            : BT.709
Codec configuration box        : av1C


Audio
ID                             : 2
Format                         : AAC LC
Format/Info                    : Advanced Audio Codec Low Complexity
Codec ID                       : mp4a-40-2
Duration                       : 20 min 7 s
Bit rate mode                  : Constant
Bit rate                       : 128 kb/s
Channel(s)                     : 2 channels
Channel layout                 : L R
Sampling rate                  : 44.1 kHz
Frame rate                     : 43.066 FPS (1024 SPF)
Compression mode               : Lossy
Stream size                    : 18.4 MiB (0%)
Title                          : ISO Media file produced by Google Inc.
Default                        : Yes
Alternate group                : 1


蓝光高清网提示您  点击下方附件名称  马上开始下载



60FPS 8K VIDEO ULTRA HD HDR - Nature is the art of God  3.79GB

60FPS 8K VIDEO ULTRA HD HDR - Nature is the art of God 3.79GB.txt ( 229 Bytes )


回复

使用道具 举报

全部回复3 显示全部楼层
gdlmxia 发表于 2021-9-27 12:06:02 | 显示全部楼层
太好啦&萬分感謝版主的無私發佈分享%
回复 支持 反对

使用道具 举报

防空洞手机认证 发表于 2021-11-16 22:37:01 | 显示全部楼层
感谢楼主,涨姿势了
回复 支持 反对

使用道具 举报

防空洞手机认证 发表于 2021-11-17 22:08:13 | 显示全部楼层
感谢楼主,涨姿势了
回复 支持 反对

使用道具 举报

发表回复

您需要登录后才可以回帖 登录 | 立即注册

本版积分规则

联系客服 关注微信 下载APP 返回顶部 返回列表