本站已运行

蓝光高清网

搜索
开启左侧

[8K视频] (60fps) Hawaii in 8K ULTRA HD - Paradise of North America 4.65GB

 
4k演示 发表于 2021-9-27 11:53:54 | 显示全部楼层 |阅读模式
19. Hawaii in 8K ULTRA HD - Paradise of North America 60fps.jpg


影片参数
General
Complete name                  : E:\CRTubeGet Downloaded\Mix - 8K World\19. Hawaii in 8K ULTRA HD - Paradise of North America (60fps).mp4
Format                         : MPEG-4
Format profile                 : Base Media
Codec ID                       : isom (isom/iso2/mp41)
File size                      : 4.65 GiB
Duration                       : 20 min 1 s
Overall bit rate               : 33.3 Mb/s
Writing application            : Lavf58.29.100


Video
ID                             : 1
Format                         : AV1
Format/Info                    : AOMedia Video 1
Format profile                 : Main@L6.1
Codec ID                       : av01
Duration                       : 20 min 1 s
Bit rate                       : 33.1 Mb/s
Width                          : 7 680 pixels
Height                         : 4 320 pixels
Display aspect ratio           : 16:9
Frame rate mode                : Constant
Frame rate                     : 60.000 FPS
Color space                    : YUV
Chroma subsampling             : 4:2:0
Bit depth                      : 8 bits
Bits/(Pixel*Frame)             : 0.017
Stream size                    : 4.63 GiB (100%)
Title                          : ISO Media file produced by Google Inc.
Color range                    : Limited
Color primaries                : BT.709
Transfer characteristics       : BT.709
Matrix coefficients            : BT.709
Codec configuration box        : av1C


Audio
ID                             : 2
Format                         : AAC LC
Format/Info                    : Advanced Audio Codec Low Complexity
Codec ID                       : mp4a-40-2
Duration                       : 20 min 1 s
Bit rate mode                  : Constant
Bit rate                       : 128 kb/s
Channel(s)                     : 2 channels
Channel layout                 : L R
Sampling rate                  : 44.1 kHz
Frame rate                     : 43.066 FPS (1024 SPF)
Compression mode               : Lossy
Stream size                    : 18.3 MiB (0%)
Title                          : ISO Media file produced by Google Inc.
Language                       : English
Default                        : Yes
Alternate group                : 1


蓝光高清网提示您  点击下方附件名称  马上开始下载



(60fps) Hawaii in 8K ULTRA HD - Paradise of North America  4.65GB


游客,如果您要查看本帖隐藏内容请回复

评分记录活跃度 高清币 收起 理由
⁠⁣doudong11 + 1 + 1 精彩
4kprol3cue6gm + 1 + 1
总评分: 活跃度 + 2  高清币 + 2 
回复

使用道具 举报

全部回复458 显示全部楼层
gdlmxia 发表于 2021-9-27 12:05:34 | 显示全部楼层
太好啦&萬分感謝版主的無私發佈分享%
回复 支持 1 反对 0

使用道具 举报

83321378手机认证 发表于 2021-9-28 12:22:26 | 显示全部楼层
.............................................
回复

使用道具 举报

不夜天 发表于 2021-9-28 22:55:57 | 显示全部楼层
好好好好爱护哦啊好好啊好啊还
回复 支持 反对

使用道具 举报

SLM 发表于 2021-9-29 11:28:51 | 显示全部楼层
不错不错不错不错不错
回复 支持 反对

使用道具 举报

4kpro1k2DRPWI手机认证 发表于 2021-9-29 16:12:08 | 显示全部楼层
夏威夷太美了,18年去过一次,终生难忘
回复 支持 反对

使用道具 举报

fgh114219 发表于 2021-9-29 16:27:45 | 显示全部楼层
66666666666666666666666666
回复 支持 反对

使用道具 举报

486448915手机认证 发表于 2021-9-29 21:20:33 来自手机 | 显示全部楼层
乌苏思思iiiiiiii哦
回复 支持 0 反对 1

使用道具 举报

dajiaopangzi手机认证 发表于 2021-9-29 21:54:46 | 显示全部楼层
夏威夷太美了,18年去过一次,终生难忘

回复 支持 反对

使用道具 举报

4kproLp7pqhRZ手机认证 发表于 2021-10-1 00:15:07 | 显示全部楼层
谢谢分享
回复

使用道具 举报

发表回复

您需要登录后才可以回帖 登录 | 立即注册

本版积分规则