蓝光高清网

搜索
开启左侧

[8K视频] Asia _ Raw Beauty - (120 FPS) 8K HDR UltraHD—1.08GB

 
4k演示 发表于 2021-12-9 10:41:44 | 显示全部楼层 |阅读模式
20. Asia _ Raw Beauty - 8K HDR UltraHD 120 FPS.jpg


影片参数
General
Format                         : MPEG-4
Format profile                 : Base Media
Codec ID                       : isom (isom/iso2/mp41)
File size                      : 1.08 GiB
Duration                       : 5 min 1 s
Overall bit rate               : 30.8 Mb/s
Writing application            : Lavf58.29.100


Video
ID                             : 1
Format                         : AV1
Format/Info                    : AOMedia Video 1
Format profile                 : Main@L6.1
Codec ID                       : av01
Duration                       : 5 min 1 s
Bit rate                       : 30.7 Mb/s
Width                          : 7 680 pixels
Height                         : 4 320 pixels
Display aspect ratio           : 16:9
Frame rate mode                : Constant
Frame rate                     : 60.000 FPS
Color space                    : YUV
Chroma subsampling             : 4:2:0
Bit depth                      : 8 bits
Bits/(Pixel*Frame)             : 0.015
Stream size                    : 1.08 GiB (100%)
Title                          : ISO Media file produced by Google Inc.
Color range                    : Limited
Color primaries                : BT.709
Transfer characteristics       : BT.709
Matrix coefficients            : BT.709
Codec configuration box        : av1C


Audio
ID                             : 2
Format                         : AAC LC
Format/Info                    : Advanced Audio Codec Low Complexity
Codec ID                       : mp4a-40-2
Duration                       : 5 min 1 s
Bit rate mode                  : Constant
Bit rate                       : 128 kb/s
Channel(s)                     : 2 channels
Channel layout                 : L R
Sampling rate                  : 44.1 kHz
Frame rate                     : 43.066 FPS (1024 SPF)
Compression mode               : Lossy
Stream size                    : 4.60 MiB (0%)
Title                          : ISO Media file produced by Google Inc.
Language                       : English
Default                        : Yes
A
lternate group                : 1



image.png

image.png


蓝光高清网提示您 点击下方附件名称 即可开始下载


Asia _ Raw Beauty - (120 FPS) 8K HDR UltraHD—1.08GB
链接:https://pan.baidu.com/s/1IhjmFwWBdOSRR5WFG1n7Mw
提取码:
游客,如果您要查看本帖隐藏内容请回复


回复

使用道具 举报

全部回复214 显示全部楼层
楸ZLGL 发表于 2021-12-9 15:10:32 | 显示全部楼层

回复

使用道具 举报

okokgogogo手机认证 发表于 2021-12-9 17:02:46 | 显示全部楼层
多谢了楼主!
回复 支持 反对

使用道具 举报

Xieyajun手机认证 发表于 2021-12-9 18:47:02 来自手机 | 显示全部楼层
感谢大神!
回复

使用道具 举报

石头剧院 发表于 2021-12-9 21:07:46 | 显示全部楼层
谢谢楼主
回复

使用道具 举报

Haha_JHMV 发表于 2021-12-9 21:24:19 | 显示全部楼层
谢谢楼主
回复

使用道具 举报

花明楼 发表于 2021-12-9 21:48:52 | 显示全部楼层

感谢大神,顶起
回复 支持 反对

使用道具 举报

残月べ 发表于 2021-12-9 22:59:43 | 显示全部楼层
感谢分享哦
回复 支持 反对

使用道具 举报

姜宁 发表于 2021-12-10 09:07:49 | 显示全部楼层

感谢分享哦
回复 支持 反对

使用道具 举报

062688938 发表于 2021-12-11 06:06:38 来自手机 | 显示全部楼层
楼主发贴辛苦了,谢谢楼主分享!
回复 支持 反对

使用道具 举报

发表回复

您需要登录后才可以回帖 登录 | 立即注册

本版积分规则

联系客服 关注微信 下载APP 返回顶部 返回列表