蓝光高清网

搜索
开启左侧

猎魔人 The.Witcher.S02.2160p.NF.WEB-DL.DDP5.1.Atmos.DV.MP4.x265-DVSUX[rartv]-4K美剧电视

 
蓝鸟 发表于 2021-12-19 10:10:53 | 显示全部楼层 |阅读模式
猎魔人 豆瓣评分: 7.4分

状态:第二季(完结)
上映时间:2021-12-17
类型:动作 
地区:美国
导演:史蒂芬·瑟吉克
主演:亨利·卡维尔 / 弗蕾娅·艾伦 / 安亚·查洛特拉 / 克里斯托弗·海维尤 / 亚森·阿图
画质标准:4K(3840x2160) 封装音轨:5.1声道 音轨编码:其他DD
剧情简介
  利维亚的杰洛特确信叶妮芙已在索登之役中丧生,他带着希瑞菈公主来到了据他所知最安全的地方,即他的童年故乡凯尔·莫罕。当这片大陆的国王、精灵、人类和恶魔在城墙外争夺统治权的时候,他必须保护这个女孩免受更危险的伤害:她体内的神秘力量....
影片参数
General
DL.DDP5.1.Atmos.DV.MP4.x265-DVSUX.mp4
Format                         : MPEG-4
Format profile                 : Base Media / Version 2
Codec ID                       : mp42 (isom/mp42/dby1)
File size                      : 6.05 GiB
Duration                       : 54 min 52 s
Overall bit rate mode          : Variable
Overall bit rate               : 15.8 Mb/s
Encoded date                   : UTC 2021-12-17 09:31:05
Tagged date                    : UTC 2021-12-17 09:31:05


Video
ID                             : 1
Format                         : HEVC
Format/Info                    : High Efficiency Video Coding
Format profile                 : Main 10@L5@Main
HDR format                     : Dolby Vision, Version 1.0, dvhe.05.06, BL+RPU
Codec ID                       : dvhe
Codec ID/Info                  : High Efficiency Video Coding with Dolby Vision
Duration                       : 54 min 52 s
Bit rate                       : 15.0 Mb/s
Width                          : 3 840 pixels
Height                         : 2 160 pixels
Display aspect ratio           : 16:9
Frame rate mode                : Constant
Frame rate                     : 24.000 FPS
Color space                    : YUV
Chroma subsampling             : 4:2:0
Bit depth                      : 10 bits
Bits/(Pixel*Frame)             : 0.075
Stream size                    : 5.75 GiB (95%)
Default                        : Yes
Alternate group                : 1
Encoded date                   : UTC 2021-12-17 09:30:38
Tagged date                    : UTC 2021-12-17 09:31:12
Color range                    : Full
Codec configuration box        : hvcC+dvcC


Audio
ID                             : 2
Format                         : E-AC-3 JOC
Format/Info                    : Enhanced AC-3 with Joint Object Coding
Commercial name                : Dolby Digital Plus with Dolby Atmos
Codec ID                       : ec-3
Duration                       : 54 min 52 s
Bit rate mode                  : Constant
Bit rate                       : 768 kb/s
Maximum bit rate               : 811 kb/s
Channel(s)                     : 6 channels
Channel layout                 : L R C LFE Ls Rs
Sampling rate                  : 48.0 kHz
Frame rate                     : 31.250 FPS (1536 SPF)
Compression mode               : Lossy
Stream size                    : 301 MiB (5%)
Title                          : English
Language                       : English
Service kind                   : Complete Main
Default                        : Yes
Alternate group                : 1
Tagged date                    : UTC 2021-12-17 09:31:12
Complexity index               : Not present / 16
Number of dynamic objects      : 15
Bed channel count              : 1 channel
Bed channel configuration      : LFE


Text #1
ID                             : 3
Format                         : Timed Text
Codec ID                       : tx3g
Duration                       : 49 min 23 s
Bit rate mode                  : Variable
Bit rate                       : 51 b/s
Stream size                    : 18.3 KiB (0%)
Title                          : English
Language                       : English
Forced                         : No
Encoded date                   : UTC 2021-12-17 09:31:10
Tagged date                    : UTC 2021-12-17 09:31:12


Text #2
ID                             : 4
Format                         : Timed Text
Codec ID                       : tx3g
Duration                       : 50 min 55 s
Bit rate mode                  : Variable
Bit rate                       : 62 b/s
Stream size                    : 23.2 KiB (0%)
Title                          : English
Language                       : English
Forced                         : No
Encoded date                   : UTC 2021-12-17 09:31:10
Tagged date                    : UTC 2021-12-17 09:31:12


Text #3
ID                             : 5
Format                         : Timed Text
Codec ID                       : tx3g
Duration                       : 52 min 21 s
Bit rate mode                  : Variable
Bit rate                       : 84 b/s
Stream size                    : 32.3 KiB (0%)
Title                          : Arabic
Language                       : Arabic
Forced                         : No
Encoded date                   : UTC 2021-12-17 09:31:11
Tagged date                    : UTC 2021-12-17 09:31:12


Text #4
ID                             : 6
Format                         : Timed Text
Codec ID                       : tx3g
Duration                       : 52 min 21 s
Bit rate mode                  : Variable
Bit rate                       : 52 b/s
Stream size                    : 19.9 KiB (0%)
Title                          : Chinese-Simplified
Language                       : Chinese
Forced                         : No
Encoded date                   : UTC 2021-12-17 09:31:11
Tagged date                    : UTC 2021-12-17 09:31:12


Text #5
ID                             : 7
Format                         : Timed Text
Codec ID                       : tx3g
Duration                       : 52 min 17 s
Bit rate mode                  : Variable
Bit rate                       : 50 b/s
Stream size                    : 19.2 KiB (0%)
Title                          : Chinese-Traditional
Language                       : Chinese
Forced                         : No
Encoded date                   : UTC 2021-12-17 09:31:11
Tagged date                    : UTC 2021-12-17 09:31:12


Text #6
ID                             : 8
Format                         : Timed Text
Codec ID                       : tx3g
Duration                       : 50 min 42 s
Bit rate mode                  : Variable
Bit rate                       : 44 b/s
Stream size                    : 16.4 KiB (0%)
Title                          : Croatian
Language                       : Croatian
Forced                         : No
Encoded date                   : UTC 2021-12-17 09:31:11
Tagged date                    : UTC 2021-12-17 09:31:12


Text #7
ID                             : 9
Format                         : Timed Text
Codec ID                       : tx3g
Duration                       : 52 min 21 s
Bit rate mode                  : Variable
Bit rate                       : 47 b/s
Stream size                    : 17.9 KiB (0%)
Title                          : Czech
Language                       : Czech
Forced                         : No
Encoded date                   : UTC 2021-12-17 09:31:11
Tagged date                    : UTC 2021-12-17 09:31:12


Text #8
ID                             : 10
Format                         : Timed Text
Codec ID                       : tx3g
Duration                       : 52 min 21 s
Bit rate mode                  : Variable
Bit rate                       : 44 b/s
Stream size                    : 17.0 KiB (0%)
Title                          : Danish
Language                       : Danish
Forced                         : No
Encoded date                   : UTC 2021-12-17 09:31:11
Tagged date                    : UTC 2021-12-17 09:31:12


Text #9
ID                             : 11
Format                         : Timed Text
Codec ID                       : tx3g
Duration                       : 52 min 16 s
Bit rate mode                  : Variable
Bit rate                       : 43 b/s
Stream size                    : 16.4 KiB (0%)
Title                          : Dutch
Language                       : Dutch
Forced                         : No
Encoded date                   : UTC 2021-12-17 09:31:11
Tagged date                    : UTC 2021-12-17 09:31:12


Text #10
ID                             : 12
Format                         : Timed Text
Codec ID                       : tx3g
Duration                       : 52 min 18 s
Bit rate mode                  : Variable
Bit rate                       : 43 b/s
Stream size                    : 16.6 KiB (0%)
Title                          : Finnish
Language                       : Finnish
Forced                         : No
Encoded date                   : UTC 2021-12-17 09:31:11
Tagged date                    : UTC 2021-12-17 09:31:12


Text #11
ID                             : 13
Format                         : Timed Text
Codec ID                       : tx3g
Duration                       : 52 min 21 s
Bit rate mode                  : Variable
Bit rate                       : 48 b/s
Stream size                    : 18.6 KiB (0%)
Title                          : French
Language                       : French
Forced                         : No
Encoded date                   : UTC 2021-12-17 09:31:11
Tagged date                    : UTC 2021-12-17 09:31:12


Text #12
ID                             : 14
Format                         : Timed Text
Codec ID                       : tx3g
Duration                       : 52 min 21 s
Bit rate mode                  : Variable
Bit rate                       : 48 b/s
Stream size                    : 18.3 KiB (0%)
Title                          : German
Language                       : German
Forced                         : No
Encoded date                   : UTC 2021-12-17 09:31:11
Tagged date                    : UTC 2021-12-17 09:31:12


Text #13
ID                             : 15
Format                         : Timed Text
Codec ID                       : tx3g
Duration                       : 52 min 18 s
Bit rate mode                  : Variable
Bit rate                       : 80 b/s
Stream size                    : 30.7 KiB (0%)
Title                          : Greek
Language                       : Greek
Forced                         : No
Encoded date                   : UTC 2021-12-17 09:31:11
Tagged date                    : UTC 2021-12-17 09:31:12


Text #14
ID                             : 16
Format                         : Timed Text
Codec ID                       : tx3g
Duration                       : 52 min 21 s
Bit rate mode                  : Variable
Bit rate                       : 76 b/s
Stream size                    : 29.0 KiB (0%)
Title                          : Hebrew
Language                       : Hebrew
Forced                         : No
Encoded date                   : UTC 2021-12-17 09:31:11
Tagged date                    : UTC 2021-12-17 09:31:12


Text #15
ID                             : 17
Format                         : Timed Text
Codec ID                       : tx3g
Duration                       : 52 min 21 s
Bit rate mode                  : Variable
Bit rate                       : 47 b/s
Stream size                    : 18.0 KiB (0%)
Title                          : Hungarian
Language                       : Hungarian
Forced                         : No
Encoded date                   : UTC 2021-12-17 09:31:11
Tagged date                    : UTC 2021-12-17 09:31:12


Text #16
ID                             : 18
Format                         : Timed Text
Codec ID                       : tx3g
Duration                       : 52 min 21 s
Bit rate mode                  : Variable
Bit rate                       : 47 b/s
Stream size                    : 18.2 KiB (0%)
Title                          : Indonesian
Language                       : Indonesian
Forced                         : No
Encoded date                   : UTC 2021-12-17 09:31:11
Tagged date                    : UTC 2021-12-17 09:31:12


Text #17
ID                             : 19
Format                         : Timed Text
Codec ID                       : tx3g
Duration                       : 52 min 18 s
Bit rate mode                  : Variable
Bit rate                       : 46 b/s
Stream size                    : 17.7 KiB (0%)
Title                          : Italian
Language                       : Italian
Forced                         : No
Encoded date                   : UTC 2021-12-17 09:31:11
Tagged date                    : UTC 2021-12-17 09:31:12


Text #18
ID                             : 20
Format                         : Timed Text
Codec ID                       : tx3g
Duration                       : 50 min 55 s
Bit rate mode                  : Variable
Bit rate                       : 50 b/s
Stream size                    : 18.7 KiB (0%)
Title                          : Japanese
Language                       : Japanese
Forced                         : No
Encoded date                   : UTC 2021-12-17 09:31:11
Tagged date                    : UTC 2021-12-17 09:31:12


Text #19
ID                             : 21
Format                         : Timed Text
Codec ID                       : tx3g
Duration                       : 52 min 21 s
Bit rate mode                  : Variable
Bit rate                       : 58 b/s
Stream size                    : 22.4 KiB (0%)
Title                          : Korean
Language                       : Korean
Forced                         : No
Encoded date                   : UTC 2021-12-17 09:31:11
Tagged date                    : UTC 2021-12-17 09:31:12


Text #20
ID                             : 22
Format                         : Timed Text
Codec ID                       : tx3g
Duration                       : 52 min 21 s
Bit rate mode                  : Variable
Bit rate                       : 45 b/s
Stream size                    : 17.2 KiB (0%)
Title                          : Malay
Language                       : Malay
Forced                         : No
Encoded date                   : UTC 2021-12-17 09:31:11
Tagged date                    : UTC 2021-12-17 09:31:12


Text #21
ID                             : 23
Format                         : Timed Text
Codec ID                       : tx3g
Duration                       : 52 min 21 s
Bit rate mode                  : Variable
Bit rate                       : 43 b/s
Stream size                    : 16.4 KiB (0%)
Title                          : Norwegian
Language                       : Norwegian Bokmal
Forced                         : No
Encoded date                   : UTC 2021-12-17 09:31:12
Tagged date                    : UTC 2021-12-17 09:31:12


Text #22
ID                             : 24
Format                         : Timed Text
Codec ID                       : tx3g
Duration                       : 52 min 21 s
Bit rate mode                  : Variable
Bit rate                       : 46 b/s
Stream size                    : 17.6 KiB (0%)
Title                          : Polish
Language                       : Polish
Forced                         : No
Encoded date                   : UTC 2021-12-17 09:31:12
Tagged date                    : UTC 2021-12-17 09:31:12


Text #23
ID                             : 25
Format                         : Timed Text
Codec ID                       : tx3g
Duration                       : 52 min 21 s
Bit rate mode                  : Variable
Bit rate                       : 47 b/s
Stream size                    : 18.1 KiB (0%)
Title                          : Portuguese
Language                       : Portuguese
Forced                         : No
Encoded date                   : UTC 2021-12-17 09:31:12
Tagged date                    : UTC 2021-12-17 09:31:12


Text #24
ID                             : 26
Format                         : Timed Text
Codec ID                       : tx3g
Duration                       : 52 min 18 s
Bit rate mode                  : Variable
Bit rate                       : 47 b/s
Stream size                    : 18.0 KiB (0%)
Title                          : Portuguese
Language                       : Portuguese
Forced                         : No
Encoded date                   : UTC 2021-12-17 09:31:12
Tagged date                    : UTC 2021-12-17 09:31:12


Text #25
ID                             : 27
Format                         : Timed Text
Codec ID                       : tx3g
Duration                       : 52 min 18 s
Bit rate mode                  : Variable
Bit rate                       : 51 b/s
Stream size                    : 19.5 KiB (0%)
Title                          : Romanian
Language                       : Romanian
Forced                         : No
Encoded date                   : UTC 2021-12-17 09:31:12
Tagged date                    : UTC 2021-12-17 09:31:12


Text #26
ID                             : 28
Format                         : Timed Text
Codec ID                       : tx3g
Duration                       : 52 min 18 s
Bit rate mode                  : Variable
Bit rate                       : 74 b/s
Stream size                    : 28.2 KiB (0%)
Title                          : Russian
Language                       : Russian
Forced                         : No
Encoded date                   : UTC 2021-12-17 09:31:12
Tagged date                    : UTC 2021-12-17 09:31:12


Text #27
ID                             : 29
Format                         : Timed Text
Codec ID                       : tx3g
Duration                       : 52 min 21 s
Bit rate mode                  : Variable
Bit rate                       : 46 b/s
Stream size                    : 17.7 KiB (0%)
Title                          : Spanish-EU
Language                       : Spanish
Forced                         : No
Encoded date                   : UTC 2021-12-17 09:31:12
Tagged date                    : UTC 2021-12-17 09:31:12


Text #28
ID                             : 30
Format                         : Timed Text
Codec ID                       : tx3g
Duration                       : 52 min 21 s
Bit rate mode                  : Variable
Bit rate                       : 45 b/s
Stream size                    : 17.3 KiB (0%)
Title                          : Spanish-EU
Language                       : Spanish
Forced                         : No
Encoded date                   : UTC 2021-12-17 09:31:12
Tagged date                    : UTC 2021-12-17 09:31:12


Text #29
ID                             : 31
Format                         : Timed Text
Codec ID                       : tx3g
Duration                       : 52 min 21 s
Bit rate mode                  : Variable
Bit rate                       : 46 b/s
Stream size                    : 17.8 KiB (0%)
Title                          : Swedish
Language                       : Swedish
Forced                         : No
Encoded date                   : UTC 2021-12-17 09:31:12
Tagged date                    : UTC 2021-12-17 09:31:12


Text #30
ID                             : 32
Format                         : Timed Text
Codec ID                       : tx3g
Duration                       : 52 min 21 s
Bit rate mode                  : Variable
Bit rate                       : 122 b/s
Stream size                    : 46.9 KiB (0%)
Title                          : Thai
Language                       : Thai
Forced                         : No
Encoded date                   : UTC 2021-12-17 09:31:12
Tagged date                    : UTC 2021-12-17 09:31:12


Text #31
ID                             : 33
Format                         : Timed Text
Codec ID                       : tx3g
Duration                       : 52 min 21 s
Bit rate mode                  : Variable
Bit rate                       : 48 b/s
Stream size                    : 18.5 KiB (0%)
Title                          : Turkish
Language                       : Turkish
Forced                         : No
Encoded date                   : UTC 2021-12-17 09:31:12
Tagged date                    : UTC 2021-12-17 09:31:12


Text #32
ID                             : 34
Format                         : Timed Text
Codec ID                       : tx3g
Duration                       : 52 min 21 s
Bit rate mode                  : Variable
Bit rate                       : 69 b/s
Stream size                    : 26.5 KiB (0%)
Title                          : Ukrainian
Language                       : Ukrainian
Forced                         : No
Encoded date                   : UTC 2021-12-17 09:31:12
Tagged date                    : UTC 2021-12-17 09:31:12


Text #33
ID                             : 35
Format                         : Timed Text
Codec ID                       : tx3g
Duration                       : 52 min 21 s
Bit rate mode                  : Variable
Bit rate                       : 67 b/s
Stream size                    : 25.8 KiB (0%)
Title                          : Vietnamese
Language                       : Vietnamese
Forced                         : No
Encoded date                   : UTC 2021-12-17 09:31:12
Tagged date                    : UTC 2021-12-17 09:31:1


蓝光高清网提示您 点击下方附件名称 即可开始下载

猎魔人 The.Witcher.S02.2160p.NF.WEB-DL.DDP5.1.Atmos.DV.MP4.x265-DVSUX[rartv]-4K美剧电视剧下载


猎魔人 The.Witcher.S02.2160p.NF.WEB-DL.DDP5.1.Atmos.DV.MP4.x265-DVSUX【自带中字】【51.09】

The.Witcher.S02.2160p.NF.WEB-DL.DDP5.1.Atmos.DV.MP4.x265-DVSUX[rartv].torrent ( 65.34 KB )

加入蓝光高清网VIP会员  无限制下载本站所有资源---点这里

资源下载、资源播放、字幕使用、无法下载等常见问题---点这里
回复

使用道具 举报

全部回复5 显示全部楼层
再会未来 发表于 2021-12-20 23:55:40 | 显示全部楼层
谢谢分享
回复

使用道具 举报

StephenHitch手机认证 发表于 2021-12-24 20:59:05 | 显示全部楼层
感谢分享,请问有普通HDR版本吗?
回复 支持 反对

使用道具 举报

dongshouba手机认证 发表于 2022-1-18 00:44:13 | 显示全部楼层
感谢分享
回复

使用道具 举报

笑沧海手机认证 发表于 2022-1-22 03:04:15 | 显示全部楼层
这个很酷的
回复 支持 反对

使用道具 举报

情思小雨 发表于 2022-5-11 20:18:01 | 显示全部楼层
好资源,值得拥有!
回复 支持 反对

使用道具 举报

发表回复

您需要登录后才可以回帖 登录 | 立即注册

本版积分规则

联系客服 关注微信 下载APP 返回顶部 返回列表