本站已运行

蓝光高清网

搜索
开启左侧

宝贝老板2/宝贝老板:家大业大 The.Boss.Baby.Family.Business.2021.3D.1080p.BluRay.x264-3D原盘电影下载

 
蓝鸟 发表于 2022-1-16 11:13:11 | 显示全部楼层 |阅读模式
宝贝老板2 豆瓣评分: 6.7分
片长: 107分钟 ( 2021年上映)
类型:喜剧 动画 
导演:汤姆·麦格拉思
主演:亚历克·鲍德温 詹姆斯·麦斯登 艾米·塞德丽丝 阿丽亚娜·格林布拉特
3 D 格式:half-ou sbs 

封装音轨:DTS-HD.MA 7.1 Dolby TrueHD 7.1 Dolby Atmos 
本帖最后由 蓝鸟 于 2022-10-26 11:27 编辑
- @1 w) u6 [( k1 s! R  _4 B2 @$ ]* Z+ s9 s
简       介- i9 o5 W4 u9 @! p+ z
5 P7 U# W2 r3 v, {) P
  设定在首部多年之后,邓普顿兄弟蒂姆和泰德长大成人,两人关系也逐渐疏远。蒂姆已婚已育,泰德是对冲基金的首席执行官,两人将因为一个有着先进方式和积极进取态度的新任“宝贝老板”重新联系在一起,激发出新的家族企业。
; m4 ]' O% k/ D! P; x$ O) u$ f- p  
) I# m& b9 K; F# ?  蒂姆和有“超级妈妈”之称的妻子卡罗尔及异常聪慧的7岁女儿塔比莎、刚出生超级可爱的婴儿蒂娜住在郊区,塔比莎是一所有威望的教育机构的尖子生,将叔叔泰德视为偶像,想成为他那样的人,但蒂姆担心她太过用功,导致无法过一个正常的童年。当蒂娜作为宝贝集团最高机密特工的真实身份曝光,目的是为了揭开塔比莎学校及其神秘创始人阿姆斯特朗博士背后的黑暗秘密时,邓普顿兄弟将以一种意想不到的方式重聚,两人重新审视家庭的意义,明白什么才是最重要的。, x3 z* k5 w/ C) u' A2 F

3 [) P$ C( q' V! \影片参数
1 `2 e) Q# ]+ _3 ~7 e
Video6 K( G* q1 g. k, U6 K- Q" N, ]$ Y
ID                                       : 1
" n, u- l2 q5 \$ uFormat                                   : AVC
/ |8 h, }+ X0 m' t1 |' y- \1 {0 kFormat/Info                              : Advanced Video Codec
: A3 T% ], r6 J/ p" Q, h) Q( HFormat profile                           : [email protected]0 y, d; g, g+ X' k  X# I: c% Q" g, f
Format settings                          : CABAC / 5 Ref Frames
! L0 z( G2 B" I. N/ rFormat settings, CABAC                   : Yes2 w" {" U+ {. p/ K7 g& s/ t( A* u' Y
Format settings, Reference frames        : 5 frames
. m: E- @( ~) h6 n( U" J% wCodec ID                                 : V_MPEG4/ISO/AVC
3 L* C2 c$ Z3 c# Q) R: }4 U3 XDuration                                 : 1 h 47 min8 r$ M9 H1 L: l+ U1 p
Bit rate                                 : 11.7 Mb/s
" k# x5 e/ N0 T/ LWidth                                    : 1 920 pixels
! c3 V1 {! \1 _8 ]3 UHeight                                   : 804 pixels- V) f: }- `2 U* o/ O( c
Display aspect ratio                     : 2.40:1
' A  o; e7 b9 z+ K9 p9 D" FFrame rate mode                          : Constant
$ r1 G% R' o6 i! S9 oFrame rate                               : 23.976 FPS+ H, n. h6 x) Y0 Y. [
Color space                              : YUV" ~4 \. w6 @* k
Chroma subsampling                       : 4:2:0) a2 d, B& ]( s, A! b9 S- @
Bit depth                                : 8 bits) G3 L+ J0 b3 t2 K7 D0 D4 ~
Scan type                                : Progressive
. a, u& ]+ C! f9 M# V; ]Bits/(Pixel*Frame)                       : 0.315
1 D& Y( M7 T9 ~Stream size                              : 8.74 GiB (75%)
7 r- J3 V* M# fWriting library                          : x264 core 164 r3081 19856cc2 E+ U+ g1 y4 F! V
Encoding settings                        : cabac=1 / ref=5 / deblock=1:-3:-3 / analyse=0x3:0x133 / me=umh / subme=8 / psy=1 / psy_rd=1.00:0.15 / mixed_ref=1 / me_range=16 / chroma_me=1 / trellis=2 / 8x8dct=1 / cqm=0 / deadzone=21,11 / fast_pskip=0 / chroma_qp_offset=-3 / threads=24 / lookahead_threads=4 / sliced_threads=0 / nr=0 / decimate=1 / interlaced=0 / bluray_compat=0 / constrained_intra=0 / bframes=3 / b_pyramid=2 / b_adapt=1 / b_bias=0 / direct=3 / weightb=1 / open_gop=0 / weightp=2 / keyint=250 / keyint_min=23 / scenecut=40 / intra_refresh=0 / rc_lookahead=50 / rc=crf / mbtree=1 / crf=15.0 / qcomp=0.60 / qpmin=0 / qpmax=69 / qpstep=4 / ip_ratio=1.40 / aq=1:1.00
2 s. M) I. Z* i4 a# M- ^Language                                 : English5 l! N1 \% N/ I- z! }" }; g& \
Default                                  : Yes
: |: M/ q: L" J9 _Forced                                   : No
. U  {. Z0 A* E
- ^( E6 i3 x" L. \5 x
Audio #17 H( G+ H, T9 M' Z
ID                                       : 2
9 P5 t) J% L! r# EFormat                                   : MLP FBA 16-ch( w& ?& @% H9 h( N# V
Format/Info                              : Meridian Lossless Packing FBA with 16-channel presentation
4 x7 a5 h7 e- R) [' w  lCommercial name                          : Dolby TrueHD with Dolby Atmos
1 U3 N% x8 D, Y3 ZCodec ID                                 : A_TRUEHD
- g( B) r+ f2 n' ^- l1 u3 HDuration                                 : 1 h 47 min" l- ^4 \, O- `" s; D  r+ {- C
Bit rate mode                            : Variable
8 R; r5 |7 w5 r6 R7 M" KBit rate                                 : 3 200 kb/s
8 T; {0 z$ \: J; rMaximum bit rate                         : 5 106 kb/s! U' q5 X& x3 y. Z8 O, x' F
Channel(s)                               : 8 channels
2 G$ |/ @- ?' I1 mChannel layout                           : L R C LFE Ls Rs Lb Rb, p+ a6 D' j1 P& Q' `
Sampling rate                            : 48.0 kHz
# x1 {, A, h# lFrame rate                               : 1 200.000 FPS (40 SPF)
6 [* |6 ?* v# M% WCompression mode                         : Lossless
5 Z' j& A3 Y6 I3 a$ ?Stream size                              : 2.40 GiB (21%)+ \, T" J6 t( X4 A/ O' C6 B9 k. ]
Language                                 : English
5 }+ ]7 h5 L& o. KDefault                                  : Yes
5 P9 k  j0 _3 N" L3 `9 B# sForced                                   : No
- z  Z7 h" Y* U7 G8 |) ?Number of dynamic objects                : 11$ s% ^+ o) j& b& t1 H* X
Bed channel count                        : 1 channel
+ ]: U5 Y& x5 |7 g6 ~' DBed channel configuration                : LFE, d! ^7 J0 u6 X, U- l: Y% p) u* K
' K" W/ [! Z+ O9 q  G" F( E/ Y/ W4 g
Audio #2
" O% T8 m/ j' GID                                       : 3+ }7 `- y- F; |; p; _1 G
Format                                   : AC-3% v8 n5 S; b) G( |
Format/Info                              : Audio Coding 3
6 J% ^- u6 I9 @9 [Commercial name                          : Dolby Digital1 |' {0 F0 |3 P. b  v
Codec ID                                 : A_AC3
+ b: M& d/ k4 x3 \Duration                                 : 1 h 47 min& \& |/ [( Y9 {2 o% G
Bit rate mode                            : Constant
, n- g& N. d# l! y5 J: i% BBit rate                                 : 448 kb/s
5 Z' a# b  [6 _  S$ I7 A2 ]& qChannel(s)                               : 6 channels
4 a8 p6 \0 @4 m  ]Channel layout                           : L R C LFE Ls Rs5 d" t; G& r9 X7 v6 N2 a
Sampling rate                            : 48.0 kHz/ P( t5 _9 K* r
Frame rate                               : 31.250 FPS (1536 SPF): _6 V' J) Y4 r; E. r; S
Compression mode                         : Lossy$ _8 p4 Q/ {# c* U& [' V. E" o
Stream size                              : 344 MiB (3%)
: ^$ U$ P9 B* @2 i; {% i1 GLanguage                                 : English  P) m; p) }! ?: Q9 i
Service kind                             : Complete Main! E8 A1 F6 |! Z
Default                                  : No9 b# C5 ?$ R% B( d7 a
Forced                                   : No
  l5 r( n' p% F& J9 J$ k0 J
, y; N  s' k% j& w; Y6 aText #15 ~  P- \" j) N6 e
ID                                       : 42 q& j( D9 C7 ~2 [7 e
Format                                   : PGS+ `. s' @$ D- E. ?; w/ o
Muxing mode                              : zlib
* }" L7 g: g  kCodec ID                                 : S_HDMV/PGS
) K( Z6 u! z& B" ~Codec ID/Info                            : Picture based subtitle format used on BDs/HD-DVDs- K- D) A1 p" b9 ~. x
Duration                                 : 1 h 40 min
0 o: p# T' y( ~( I% |% YBit rate                                 : 68.8 kb/s3 ^7 x# F; X) w0 d8 y% {
Count of elements                        : 4920
3 w' c! ?  c% M0 @Stream size                              : 49.6 MiB (0%)6 N; @: `5 S7 [7 w& M4 f8 x4 ?
Language                                 : English: r9 c9 ^- p/ \! b( x1 ]. Y5 F2 @: `- g
Default                                  : No
$ w! C9 N8 o6 S7 i8 l/ S2 OForced                                   : No' P# n; o1 s' c! L0 H/ o9 y

$ }7 X' D4 k% |Text #2
* v# e/ p# P0 l" `" V% u; M; CID                                       : 5, ?! _& l1 e& x/ ]
Format                                   : PGS
- W' I1 k0 G% G  H/ zMuxing mode                              : zlib. F, Z" y* o; \$ b7 j9 c
Codec ID                                 : S_HDMV/PGS
( k" }$ J. w7 N6 E: tCodec ID/Info                            : Picture based subtitle format used on BDs/HD-DVDs  \  G' ?& Y8 m. s9 x
Duration                                 : 1 h 46 min
, u5 \3 j. u, a1 OBit rate                                 : 51.5 kb/s0 w  q4 Q3 h' F9 k! \0 I
Count of elements                        : 3948* U" c/ C' x0 T; d
Stream size                              : 39.1 MiB (0%)
% S, \. m2 v8 E+ ?' \Language                                 : German
5 t9 ~  p& Y5 UDefault                                  : No7 d) C" A1 \. Y8 I( ~# X
Forced                                   : No$ Y! c6 `' q0 H6 H) }

: ?* g8 ]* j) _* ]2 f. f6 h2 cText #36 J/ e" c1 ~3 _' H: ~7 m% ?9 v
ID                                       : 6
2 `: x, t) u) j, nFormat                                   : PGS
! l3 Q' E9 _4 ]Muxing mode                              : zlib; e2 c2 g4 R& k: T+ j- Y! a
Codec ID                                 : S_HDMV/PGS: X: p) V4 G; b' N7 N
Codec ID/Info                            : Picture based subtitle format used on BDs/HD-DVDs
! r, D) `5 a* E4 j: KDuration                                 : 1 h 46 min
- W9 l- A6 K+ c4 y) KBit rate                                 : 50.7 kb/s
6 J! o2 Y* L: h; w4 U! u6 WCount of elements                        : 4174
5 e7 l+ a5 S$ g! WStream size                              : 38.6 MiB (0%)" g5 `, n) w: }& j( z
Language                                 : Italian
/ ^+ q7 t* A+ R# R- ~4 F" gDefault                                  : No' Q( W' [- ?  M+ B6 L2 _
Forced                                   : No
" s! H+ X0 o; P. b
: N8 @, W& C" p$ y& b
Text #46 d. i% v, c  G4 d9 K! K
ID                                       : 7
4 k  {3 a7 @+ `% r% V. Y. g8 i9 [Format                                   : PGS, ^) Q4 W9 H8 i3 O/ ?
Muxing mode                              : zlib/ j% Z9 _" H/ i0 x
Codec ID                                 : S_HDMV/PGS- G$ m/ b$ z% ^
Codec ID/Info                            : Picture based subtitle format used on BDs/HD-DVDs
6 J) X$ }- h6 [7 p: XDuration                                 : 1 h 46 min: R2 Y! E+ m* D  \8 i# p1 ]2 ^8 L
Bit rate                                 : 51.0 kb/s3 B. m( J" l1 u+ i
Count of elements                        : 4190
9 r% @% W$ ]6 U. `4 K! k( N- Y8 z2 jStream size                              : 38.8 MiB (0%)* d- C2 [2 c, r/ a
Language                                 : Greek
% h5 N  ^! r5 l& xDefault                                  : No
# z/ p6 f3 u) g+ I6 _Forced                                   : No: {' _4 K$ K9 L" \- Z9 H
. I8 c6 @7 f7 D- _5 k- Q
Text #5) ~, t. K" Z5 `  _
ID                                       : 8
) ]  X% z% K% g" v/ T: I: TFormat                                   : PGS& }, b) [% T+ p! K% m
Muxing mode                              : zlib
' T: Y" T8 X: ~6 t: PCodec ID                                 : S_HDMV/PGS
2 I- w/ Z# [( n4 \  q! O& N7 l. i- F* ZCodec ID/Info                            : Picture based subtitle format used on BDs/HD-DVDs
$ ~2 I) s9 t5 W& iDuration                                 : 1 h 46 min8 h# J8 [0 V+ N2 Q7 \0 K
Bit rate                                 : 202 b/s
: L2 p! T7 L( s$ R- y! ?Count of elements                        : 16( J" z, u$ q& m0 ]
Stream size                              : 158 KiB (0%)
5 q* _4 W- |+ ~! ~: XLanguage                                 : German( X$ C+ R7 i& P' w  \2 d# E+ _, z
Default                                  : No9 o9 Z2 X) ^# O& F* ]
Forced                                   : No7 t& k+ F) H- f) Y! f# D

5 X5 z1 ^# p* a9 \Text #67 j5 R9 L: C" v* w2 m3 H0 Z
ID                                       : 9$ p, z+ J2 C/ o; h8 j; l
Format                                   : PGS
; Z: v2 ^2 ?! W% G) w0 ^2 aMuxing mode                              : zlib5 j) K; S9 v  E# T+ p+ ?
Codec ID                                 : S_HDMV/PGS
4 ?1 T; s) g* Y" OCodec ID/Info                            : Picture based subtitle format used on BDs/HD-DVDs
; I4 W! D' G, K. Q8 z' _+ [' mDuration                                 : 1 h 46 min
! }: q. O% s+ {" J" N7 r, yBit rate                                 : 316 b/s
5 C9 e- ]3 Q7 @5 BCount of elements                        : 285 e; A7 J2 N  C) N1 U2 B9 \4 ]
Stream size                              : 247 KiB (0%)
0 P( `2 f# M1 a: }$ ~; ]6 w; GLanguage                                 : Italian
" p: z9 o! m* H) t! L2 l% z* BDefault                                  : No
, [* U- W9 J9 ^0 i7 w* nForced                                   : No
9 j5 H3 B- {3 q* v' m4 g4 O1 D! _8 X/ ^5 \8 [! t
Menu( K( X' a# w- N$ U; M
00:00:00.000                             : en:Chapter 01- v2 O' D( \! H7 _) n
00:04:18.383                             : en:Chapter 02) |6 ~: P* ]6 h1 T$ F
00:09:50.673                             : en:Chapter 03
+ Q* ?( l# u# J. ~( m# h00:13:43.364                             : en:Chapter 04
. ]; Q3 n1 _0 E8 J5 e2 \; J00:19:51.816                             : en:Chapter 05
1 P& f) y' Q5 ^. m00:24:55.119                             : en:Chapter 06
8 ^) x8 {. s. T& p4 A/ V00:29:12.125                             : en:Chapter 07
) Z1 A- M# T( Z% B00:34:22.018                             : en:Chapter 087 V. v4 x; W5 F1 J2 o
00:38:09.245                             : en:Chapter 09
+ S3 l( k  `6 F00:44:36.299                             : en:Chapter 100 y; e  r$ T/ J* Y/ A
00:51:25.124                             : en:Chapter 11$ Y* ]4 y( T* k% j& x2 k( k
01:00:47.853                             : en:Chapter 12
* @0 q( W. o( H: C& v2 t  ?01:04:54.474                             : en:Chapter 13
* M  H1 V4 ^" o6 ]' X01:08:08.209                             : en:Chapter 14
& j; s+ U" G+ Q& f4 E3 N/ h# V01:13:27.403                             : en:Chapter 15& m7 d2 U$ x) _# Y4 B3 U% r
01:18:38.172                             : en:Chapter 16
) s8 v# J4 I7 g01:22:44.418                             : en:Chapter 172 |2 Y& @: F2 u! k% |
01:27:13.437                             : en:Chapter 18$ n# F; j8 b+ X. |! S
01:35:06.701                             : en:Chapter 19
5 t6 D2 I/ C  O0 b# N0 u01:38:13.721                             : en:Chapter 20
) x5 q3 p/ F7 g, v6 M2 @& u2 [
蓝光高清网提示您 点击下方附件名称 即可开始下载
9 K- K' g( q2 e& D8 g. n! l  T4 }0 t; d3 A  z' A9 c. U6 G& P& b5 J
多版本下载时请注意区分
- r9 o, H" A' w- a8 d$ F8 [

% D! x9 n, T6 D1 v7 E/ y4 B宝贝老板2/宝贝老板:家大业大 The.Boss.Baby.Family.Business.2021.3D.1080p.BluRay.x264-3D原盘电影下载
* L7 c* Y$ `! O; f+ y3 I5 h& C# o
4 p5 e# F3 F5 E& G宝贝老板2/宝贝老板:家大业大 The.Boss.Baby.Family.Business.2021.3D.1080p.BluRay.x264-JustWatch 11.61GB
; a% n5 n  D. f* `

The.Boss.Baby.Family.Business.2021.3D.1080p.BluRay.x264-JustWatch.torrent ( 15.3 KB )

; j& ]: }! n' _5 H3 w' k
7 ~: K* |7 l* X  h2 A
宝贝老板2 The.Boss.Baby.Family.Business.2021.1080p.3D.BluRay.Half-OU.x264.DTS-HD.MA.7.1-FGT 18.50GB " a2 h+ _5 C$ w$ G

The.Boss.Baby.Family.Business.2021.1080p.3D.BluRay.Half-OU.x264.DTS-HD.MA.7.1-FGT.torrent ( 23.8 KB )


1 F: P0 k* B+ `  {2 \  P" @* j# j
9 U; w) w0 a) i+ I& b4 ~宝贝老板2 The.Boss.Baby.Family.Business.2021.1080p.3D.BluRay.Half-OU.x264.TrueHD.7.1.Atmos-FGT 17.85GB* }) Y' K: f: J# U

The.Boss.Baby.Family.Business.2021.1080p.3D.BluRay.Half-OU.x264.TrueHD.7.1.Atmos.torrent ( 23.01 KB )


6 V$ y! p" Q+ i: Y) V5 O4 u5 W- n' V- v
宝贝老板2 The.Boss.Baby.Family.Business.2021.1080p.3D.BluRay.Half-SBS.x264.TrueHD.7.1.Atmos-FGT 17.04GB
) q4 [3 F8 E5 ^4 E0 M- l

The.Boss.Baby.Family.Business.2021.1080p.3D.BluRay.Half-SBS.x264.TrueHD.7.1.Atmo.torrent ( 22 KB )


: B0 S5 q3 \, c/ j1 \! R9 ^$ @2 p2 s1 m  s; h1 q6 S: k7 A
宝贝老板2 The.Boss.Baby.Family.Business.2021.1080p.3D.BluRay.Half-SBS.x264.DTS-HD.MA.7.1-FGT 17.68GB
' y; o9 d9 J) Y* y; e( Y5 S% \

The.Boss.Baby.Family.Business.2021.1080p.3D.BluRay.Half-SBS.x264.DTS-HD.MA.7.1-FGT.torrent ( 22.79 KB )


" Y) u" s& _, a% `" Q
加入蓝光高清网VIP会员  无限制下载本站所有资源---点这里

资源下载、资源播放、字幕使用、无法下载等常见问题---点这里
回复

使用道具 举报

全部回复8 显示全部楼层
songyufang66手机认证 发表于 2022-1-16 17:18:35 | 显示全部楼层
喜欢看3d电影可惜片源太少
2 H. U: w7 @1 C+ i5 r, ~
回复 支持 反对

使用道具 举报

li594386385手机认证 发表于 2022-1-17 15:17:17 | 显示全部楼层
不赖,支持一下网站
回复 支持 反对

使用道具 举报

madwing手机认证 发表于 2022-1-26 19:06:23 | 显示全部楼层
这个好看吗
' |  ]/ Z6 h0 E% ?
回复 支持 反对

使用道具 举报

jacky5826手机认证 发表于 2022-2-5 21:13:23 | 显示全部楼层
好得很,真好看  我儿子一直想看  终于找到地方了   欧耶
& K' ^/ N: [3 F- C+ z) H
回复 支持 反对

使用道具 举报

磐石22 发表于 2022-4-26 18:03:52 | 显示全部楼层
不赖,支持一下网站
回复 支持 反对

使用道具 举报

YSJJ手机认证 发表于 2022-5-10 15:56:11 | 显示全部楼层
不赖,支持一下网站
回复 支持 反对

使用道具 举报

yumajia手机认证 发表于 2022-5-13 12:55:35 | 显示全部楼层
太贵了,几百块钱才能下载
回复 支持 反对

使用道具 举报

new_yang 发表于 2022-5-24 18:25:39 | 显示全部楼层
非常赞,支持好资源
回复 支持 反对

使用道具 举报

发表回复

您需要登录后才可以回帖 登录 | 立即注册

本版积分规则

开通会员 帮助中心 返回顶部 返回列表