蓝光高清网

搜索
开启左侧

宝贝老板2/宝贝老板:家大业大 The.Boss.Baby.Family.Business.2021.3D.1080p.BluRay.x264-JustWatch 11.61GB

 
蓝鸟 发表于 2022-1-16 11:13:11 | 显示全部楼层 |阅读模式
宝贝老板2 豆瓣评分: 6.7分
片长: 107分钟 ( 2021年上映)
类型:喜剧 动画 
导演:汤姆·麦格拉思
主演:亚历克·鲍德温 詹姆斯·麦斯登 艾米·塞德丽丝 阿丽亚娜·格林布拉特
3 D 格式:sbs 

封装音轨:Dolby TrueHD 5.1 
简       介) `& x' f& x3 o4 s6 w5 Q

- ]4 s- L  s* k. W) W) W+ ?. X

0 I+ J% R2 g! A( @- I  设定在首部多年之后,邓普顿兄弟蒂姆和泰德长大成人,两人关系也逐渐疏远。蒂姆已婚已育,泰德是对冲基金的首席执行官,两人将因为一个有着先进方式和积极进取态度的新任“宝贝老板”重新联系在一起,激发出新的家族企业。
! z: x4 X( ^! k- B6 p2 Z1 z" B  ! O* p; d6 w7 t2 U8 x5 Q* w
  蒂姆和有“超级妈妈”之称的妻子卡罗尔及异常聪慧的7岁女儿塔比莎、刚出生超级可爱的婴儿蒂娜住在郊区,塔比莎是一所有威望的教育机构的尖子生,将叔叔泰德视为偶像,想成为他那样的人,但蒂姆担心她太过用功,导致无法过一个正常的童年。当蒂娜作为宝贝集团最高机密特工的真实身份曝光,目的是为了揭开塔比莎学校及其神秘创始人阿姆斯特朗博士背后的黑暗秘密时,邓普顿兄弟将以一种意想不到的方式重聚,两人重新审视家庭的意义,明白什么才是最重要的。7 M2 T' H5 a. j
0 Y& X% O# {% v4 q) I3 J
影片参数8 j& H4 g( e9 A& T
Video' E+ |9 P& d* G. u9 m6 g# R
ID                                       : 1) p# w/ ?, ?' Q2 M7 T
Format                                   : AVC
% w( [  I# G/ yFormat/Info                              : Advanced Video Codec
$ |9 j3 W; F- pFormat profile                           : [email protected]" L; M. ~* t6 X3 b; R9 ]- v" l, `
Format settings                          : CABAC / 5 Ref Frames9 B/ ^" e6 ~$ s: I5 h
Format settings, CABAC                   : Yes5 H% i- h5 r( d8 S
Format settings, Reference frames        : 5 frames
$ }- }- ^- `* PCodec ID                                 : V_MPEG4/ISO/AVC1 U9 h& j3 H3 |# `8 }2 @
Duration                                 : 1 h 47 min
# u4 I! ~: y0 P6 SBit rate                                 : 11.7 Mb/s
, \2 ^, ]! j# M9 RWidth                                    : 1 920 pixels/ f7 s( W2 X2 x5 q8 N3 r
Height                                   : 804 pixels$ H  g0 p" t4 j/ h3 [; i
Display aspect ratio                     : 2.40:1
/ s' e$ C' J$ a, j$ t1 FFrame rate mode                          : Constant- w. w  z; C1 Y8 O+ S/ c
Frame rate                               : 23.976 FPS8 f& u' i% `, e$ j+ W
Color space                              : YUV
" b8 K% R; t8 R$ a! SChroma subsampling                       : 4:2:0
! E% `( |* x4 @/ N8 F1 T- TBit depth                                : 8 bits
. P# a4 n( \9 J3 G" p- A  QScan type                                : Progressive& u# M, i) L) Q
Bits/(Pixel*Frame)                       : 0.315
: A( I6 U2 d8 E. h+ }) i# `5 ^# KStream size                              : 8.74 GiB (75%)
, H" Q! v0 i3 i. U. Q" D1 cWriting library                          : x264 core 164 r3081 19856cc
5 l' y. }) g. z0 s1 j/ \  ?Encoding settings                        : cabac=1 / ref=5 / deblock=1:-3:-3 / analyse=0x3:0x133 / me=umh / subme=8 / psy=1 / psy_rd=1.00:0.15 / mixed_ref=1 / me_range=16 / chroma_me=1 / trellis=2 / 8x8dct=1 / cqm=0 / deadzone=21,11 / fast_pskip=0 / chroma_qp_offset=-3 / threads=24 / lookahead_threads=4 / sliced_threads=0 / nr=0 / decimate=1 / interlaced=0 / bluray_compat=0 / constrained_intra=0 / bframes=3 / b_pyramid=2 / b_adapt=1 / b_bias=0 / direct=3 / weightb=1 / open_gop=0 / weightp=2 / keyint=250 / keyint_min=23 / scenecut=40 / intra_refresh=0 / rc_lookahead=50 / rc=crf / mbtree=1 / crf=15.0 / qcomp=0.60 / qpmin=0 / qpmax=69 / qpstep=4 / ip_ratio=1.40 / aq=1:1.00
; ]# P; F* ~2 x3 k& z& XLanguage                                 : English
7 a0 X& g9 b1 @Default                                  : Yes
$ R' i. g: x7 ZForced                                   : No
2 V; c% @. _& S: u3 R& N6 m1 n, v( }" v' R3 W3 L# [  i% k* O* P

& K( x2 x: `. m9 q+ bAudio #19 P! e. i9 d; _' X$ y! L) o4 ^
ID                                       : 2
; l' Q( W9 t% v, GFormat                                   : MLP FBA 16-ch  v  G4 b4 t7 `" P3 @9 \
Format/Info                              : Meridian Lossless Packing FBA with 16-channel presentation4 C5 t$ q2 `: u/ I
Commercial name                          : Dolby TrueHD with Dolby Atmos) C, {# R4 U! {' w: z
Codec ID                                 : A_TRUEHD! ^& ~: ^( F2 v+ b; n& o! q
Duration                                 : 1 h 47 min
  @" N) r: c8 U& EBit rate mode                            : Variable
% v; v9 h2 |; I# L9 vBit rate                                 : 3 200 kb/s
1 M: U7 C, [$ B& X) r* ~# g0 nMaximum bit rate                         : 5 106 kb/s
- ?/ k. O9 K9 S  Y7 a* qChannel(s)                               : 8 channels
4 I% j, |; m2 v7 W3 wChannel layout                           : L R C LFE Ls Rs Lb Rb
7 _9 z) t2 D  W* U) B: T5 SSampling rate                            : 48.0 kHz2 c; C5 l! \; w6 k/ M% t
Frame rate                               : 1 200.000 FPS (40 SPF), o. o& B0 f5 a& O3 N( P! @
Compression mode                         : Lossless
. g+ e3 V- u8 F. d; OStream size                              : 2.40 GiB (21%)  Y1 c' ^9 p- h0 J" f
Language                                 : English  [# n$ a- z0 [* C1 e3 y# \
Default                                  : Yes
" ~2 r( Y$ l5 Z+ T" h. rForced                                   : No0 [* d$ \/ r; Z7 I) S
Number of dynamic objects                : 11& Z6 j3 v0 W9 d4 S! O, ~8 G7 X
Bed channel count                        : 1 channel* j1 q( [0 J3 g2 F/ ^' M
Bed channel configuration                : LFE
4 y7 H* b& C, A6 C
' R  P- d, L0 U& G! i4 |: b/ z

9 u) {+ L- w9 W/ Y* WAudio #21 a/ [1 E) L# l- F
ID                                       : 3
6 g4 u7 t- _) iFormat                                   : AC-3
8 w# N  x* @; B# K1 U! l5 wFormat/Info                              : Audio Coding 39 o8 d: D  v1 ~3 V0 z6 F! c
Commercial name                          : Dolby Digital# i' M4 o! P$ x& C4 j+ c/ @
Codec ID                                 : A_AC3
1 L/ h  X6 p& E! nDuration                                 : 1 h 47 min' n* m8 ]' O8 O. v+ I
Bit rate mode                            : Constant
* N9 Y. x, a& V3 O! T) Z3 J) QBit rate                                 : 448 kb/s( `- H! n4 _4 B5 D: ?7 m
Channel(s)                               : 6 channels( u; b1 W9 C% h" \
Channel layout                           : L R C LFE Ls Rs
% b& n2 o0 f; b, f( C, p5 X4 k: ISampling rate                            : 48.0 kHz# P5 V9 x) \. h- F' p$ F
Frame rate                               : 31.250 FPS (1536 SPF)% f3 b7 v+ ?% c6 w
Compression mode                         : Lossy
6 n& Y/ ?; u! x6 t& i5 K# _Stream size                              : 344 MiB (3%)( u4 R8 c5 @9 u7 j) A2 b
Language                                 : English
7 H* K0 f4 @+ hService kind                             : Complete Main! ]2 f' T' t, d' p
Default                                  : No2 F( T% a8 d$ I# [8 |
Forced                                   : No/ g- ?' T/ p( h5 A8 |& D$ I
$ ]+ h* Q2 k/ b' J+ a  N: h5 o4 R
/ i0 ?) y1 e3 R% V2 T7 _- c
Text #1
$ A" }/ o0 }9 ?( V4 s+ XID                                       : 4
/ K6 l) N6 _/ G  F5 b$ QFormat                                   : PGS. y; {- q+ z2 d* q1 @
Muxing mode                              : zlib0 T% [/ h* }+ J0 E! v* n5 j
Codec ID                                 : S_HDMV/PGS4 o! F8 x; S1 k/ `) [7 a
Codec ID/Info                            : Picture based subtitle format used on BDs/HD-DVDs
) N; a1 f( T' K  b* ~" \- D  E  [/ HDuration                                 : 1 h 40 min: K9 F9 }* m2 W# m3 C: U$ G
Bit rate                                 : 68.8 kb/s
2 ^: t' k6 d# r1 c% d" d. h- L; ]Count of elements                        : 4920& R; C4 p: U  n0 O
Stream size                              : 49.6 MiB (0%)
* B, \1 }* r0 {9 w( Q/ a/ qLanguage                                 : English& U2 m- ~: [9 ?3 ?3 K. _4 M
Default                                  : No
4 R4 z% R& o) M' JForced                                   : No
4 ~- t2 ]8 g( f. d  ^' W
5 x6 O, P2 z# L9 Z
0 k0 K0 \3 K8 _( q8 S& j0 g
Text #2# o9 O) y1 \6 Z; [2 T4 _8 J
ID                                       : 5' n9 d  Z# b; r* L- b! c5 l
Format                                   : PGS
& E3 f1 f2 Y3 W4 u$ b+ V6 nMuxing mode                              : zlib
& a, d* q' q% r4 v% xCodec ID                                 : S_HDMV/PGS
2 _9 I1 W) a0 BCodec ID/Info                            : Picture based subtitle format used on BDs/HD-DVDs
, A8 T/ z' W- MDuration                                 : 1 h 46 min
6 k; I" `* e5 [Bit rate                                 : 51.5 kb/s- J& W0 n  {2 ^* v. Z
Count of elements                        : 3948  G& |* `$ {: Z' P+ D' L+ a
Stream size                              : 39.1 MiB (0%). Z9 ?% b: \3 g6 C
Language                                 : German. C+ H( {. N1 A8 \
Default                                  : No
$ z+ K# x! C3 b+ z9 A0 o$ a, zForced                                   : No
& q% k' E! v1 a8 X4 |" V& B( K$ p- V- S# m7 v' l/ F2 q
5 h* X% t6 t' e" ^% c) @2 W
Text #3
  A# h. W# D, [2 [% ]9 p- aID                                       : 6# }0 j6 |7 z$ f. K% h7 h* I) G
Format                                   : PGS) V' A7 O) k, m) o/ N
Muxing mode                              : zlib; U; j+ O6 E* a$ c: o4 |
Codec ID                                 : S_HDMV/PGS
2 G6 r, D$ X3 Z) S- u6 vCodec ID/Info                            : Picture based subtitle format used on BDs/HD-DVDs" f, j3 Q6 p4 S, L' g3 T" y+ ]& @
Duration                                 : 1 h 46 min
, q$ s* ?8 w* h, jBit rate                                 : 50.7 kb/s) Z1 h' F, A5 R9 C. Z, J6 u/ s: V
Count of elements                        : 4174$ Z  w( e. C7 [- k$ M
Stream size                              : 38.6 MiB (0%)
9 G9 c9 U: x5 rLanguage                                 : Italian
( k2 O+ r, H3 R+ E! b* N9 cDefault                                  : No
5 ]2 x9 ]( I, J3 N+ `' \Forced                                   : No2 Z& O. w' i) c- [  r5 A: e
+ W- U$ Y! f! F' d+ l
2 L9 Q7 O$ l2 I" n( `0 L7 N* m4 ^, C
Text #4
" n% d$ d5 n1 ^1 W* CID                                       : 7
: [4 F& A+ `8 c, jFormat                                   : PGS* T  t' _3 E7 g- a9 [% r
Muxing mode                              : zlib
, a" o! v+ ~; r  a. P4 d" PCodec ID                                 : S_HDMV/PGS) ?& {0 Q; S7 J5 |
Codec ID/Info                            : Picture based subtitle format used on BDs/HD-DVDs2 e7 w2 c& V* `$ M. p( f; c3 h
Duration                                 : 1 h 46 min+ C/ R( Y" V  c, S( _' D  D
Bit rate                                 : 51.0 kb/s: W( G" t- L+ V0 @; H
Count of elements                        : 4190  M$ y& ^, r3 T* }& J
Stream size                              : 38.8 MiB (0%)" _5 M' \' b: d- I9 H7 k
Language                                 : Greek
) N7 ^3 G' v  oDefault                                  : No1 e' Z4 l( }& P+ i( P2 |
Forced                                   : No
6 `2 I3 C. k- g( g6 L  V9 W- K" F. N# {4 @) U& H

: K5 T& ^8 w7 e( r" T6 sText #5
! Y2 s6 z5 A  M- @: BID                                       : 8
( b; D7 u, u) q0 a8 |Format                                   : PGS
8 o9 G5 H' u, W' vMuxing mode                              : zlib( [, N: S# d6 |, i# w! m( c
Codec ID                                 : S_HDMV/PGS7 i! @8 s5 v8 O% H* }5 {
Codec ID/Info                            : Picture based subtitle format used on BDs/HD-DVDs
' T7 u- x6 C/ A1 ?0 Z/ Q1 ]Duration                                 : 1 h 46 min
& e$ z9 i2 W0 [* E* fBit rate                                 : 202 b/s
3 D/ |1 d. N* {Count of elements                        : 16
" `2 }0 P" g1 x! z- \; x) T! KStream size                              : 158 KiB (0%)  j* z# F& t  i8 b! K
Language                                 : German9 k: M% C* Z+ c7 I
Default                                  : No1 _/ A7 J2 t. l4 c8 M
Forced                                   : No' ]/ M) O( c" U9 [% d( v

0 L! V  z7 b) q+ X! g
' g8 X8 g& K* A
Text #69 A6 w; w2 [4 `0 Y8 _
ID                                       : 9
$ a6 [, l; J& k. u) A' i( dFormat                                   : PGS
3 ]; z; J' f3 ~5 b. ?Muxing mode                              : zlib
( e, o! l9 m  g% ~Codec ID                                 : S_HDMV/PGS
% r& I1 }( J0 w/ s( D6 j; RCodec ID/Info                            : Picture based subtitle format used on BDs/HD-DVDs
+ V7 g/ X- b5 a$ e) u* ~9 ~6 aDuration                                 : 1 h 46 min
% g" B( W* G) W4 ]0 k, M. g4 oBit rate                                 : 316 b/s9 Y6 k# ^, F. D' B' q
Count of elements                        : 28
7 l( B6 z4 p# t# HStream size                              : 247 KiB (0%)3 u1 ]  I3 T- Z% o* v$ S/ ?3 z
Language                                 : Italian# v3 k# v! ?) i9 h# K( `5 \1 U# N4 G
Default                                  : No
, d% }5 a. T5 g$ M7 j: R' J: UForced                                   : No0 k2 u" Z" ?5 v9 S* z! Y. l# |. y

) T: T, H0 X( g! I: Z6 E
! n+ _, S2 h- P* `+ g1 H( E
Menu5 @$ S; I9 a8 J7 ?1 Q
00:00:00.000                             : en:Chapter 01
3 k, I+ ^/ {: s! _! [, o& M- S00:04:18.383                             : en:Chapter 02' Z1 b3 y: R$ |3 o) ~2 X
00:09:50.673                             : en:Chapter 03
$ d9 W0 w% {: h3 E& g; D8 K' H00:13:43.364                             : en:Chapter 04
0 H2 Z5 c; P# ^' t% ^8 F00:19:51.816                             : en:Chapter 05
4 @- i0 N# @1 G4 E00:24:55.119                             : en:Chapter 06
# M, C8 _# ?1 L, Z* v& v% M& K00:29:12.125                             : en:Chapter 07/ F$ e1 t- ^- y$ A' S# ], V
00:34:22.018                             : en:Chapter 08+ k+ S) Z' b& `; z7 \. C
00:38:09.245                             : en:Chapter 09
7 Z1 n5 s; l) H) S+ p00:44:36.299                             : en:Chapter 10  `# p  a4 O: p9 q# T
00:51:25.124                             : en:Chapter 11# v& G( B3 P1 D5 o% L
01:00:47.853                             : en:Chapter 12, U6 Z( O: b* }# ^% f. D' s/ Z
01:04:54.474                             : en:Chapter 13
6 q# _1 s0 F) U3 U- o01:08:08.209                             : en:Chapter 14+ t' A4 y3 m0 u' c
01:13:27.403                             : en:Chapter 15
( p) P6 X+ H4 P" H* g9 p: f: u01:18:38.172                             : en:Chapter 16' \- Q; p6 }( e- M5 |4 [1 ]
01:22:44.418                             : en:Chapter 17
- P0 j3 T% p' I. ?, L2 [01:27:13.437                             : en:Chapter 18, G( d, B1 I0 @# B9 l
01:35:06.701                             : en:Chapter 19
/ A' f& e9 U1 O. z; e% A9 P01:38:13.721                             : en:Chapter 20
+ D  W7 E' I5 ]1 ?5 c# x$ X

# s* [' Y% s1 V+ D9 `9 h* K" y: o" B/ a2 r, T+ d1 ?/ ?
b3054951f9797af47005f0c65ed59296.jpeg   i/ Y/ a0 L; w: Q' m8 p9 P

. V# H2 d' a7 z  D7 ^蓝光高清网提示您 点击下方附件名称 即可开始下载6 R( O8 Y7 q) e, t# |& _+ i3 K
) j0 @- Y5 A& J) M' x. q
宝贝老板2/宝贝老板:家大业大 The.Boss.Baby.Family.Business.2021.3D.1080p.BluRay.x264-JustWatch 11.61GB
8 c4 {& E" H% W1 X; d

The.Boss.Baby.Family.Business.2021.3D.1080p.BluRay.x264-JustWatch.torrent ( 15.3 KB )

8 k7 K/ Z6 ^" N  \3 r. Y5 h
; Z* }7 e; h/ @: s  Q7 T
加入蓝光高清网VIP会员  无限制下载本站所有资源---点这里

资源下载、资源播放、字幕使用、无法下载等常见问题---点这里
回复

使用道具 举报

全部回复7 显示全部楼层
songyufang66手机认证 发表于 2022-1-16 17:18:35 | 显示全部楼层
喜欢看3d电影可惜片源太少3 J  j' K7 U4 b
回复 支持 反对

使用道具 举报

li594386385手机认证 发表于 2022-1-17 15:17:17 | 显示全部楼层
不赖,支持一下网站
回复 支持 反对

使用道具 举报

madwing手机认证 发表于 2022-1-26 19:06:23 | 显示全部楼层
这个好看吗
" N* t" G# ]3 f2 K' \  d% @
回复 支持 反对

使用道具 举报

jacky5826手机认证 发表于 2022-2-5 21:13:23 | 显示全部楼层
好得很,真好看  我儿子一直想看  终于找到地方了   欧耶
, Y3 U: G! D) w% R: F
回复 支持 反对

使用道具 举报

磐石22 发表于 2022-4-26 18:03:52 | 显示全部楼层
不赖,支持一下网站
回复 支持 反对

使用道具 举报

YSJJ手机认证 发表于 2022-5-10 15:56:11 | 显示全部楼层
不赖,支持一下网站
回复 支持 反对

使用道具 举报

yumajia手机认证 发表于 6 天前 | 显示全部楼层
太贵了,几百块钱才能下载
回复 支持 反对

使用道具 举报

发表回复

您需要登录后才可以回帖 登录 | 立即注册

本版积分规则

联系客服 关注微信 下载APP 返回顶部 返回列表