蓝光高清网

搜索
开启左侧

破产姐妹 2.Broke.Girls.S05.1080p.HDTV.X264-美剧下载

蓝鸟 发表于 2022-1-25 21:47:24 | 显示全部楼层 |阅读模式
破产姐妹 豆瓣评分: 8.4分

状态:第五季(完结)
上映时间:2015-11-12
类型:喜剧 
地区:美国
导演:迈克尔·帕特里克·金
主演:凯特·戴琳斯 / 贝丝·比厄 / 加勒特·莫里斯 / 马修·摩伊 / 乔纳森·克特
画质标准:超清(1920x1080) 封装音轨:2.0声道 音轨编码:其他AAC
剧情简介
  CBS正式宣布续订《破产姐妹》第五季。....
本帖最后由 蓝鸟 于 2022-1-25 21:59 编辑

影片参数
General
Format                         : Matroska
Format version                 : Version 2
File size                      : 1.43 GiB
Duration                       : 21 min 32 s
Overall bit rate               : 9 518 kb/s
Encoded date                   : UTC 2015-11-12 22:58:44
Writing application            : mkvmerge v3.1.0 ('Happy up here') built on Jan 19 2010 12:09:24
Writing library                : libebml v0.7.9 + libmatroska v0.8.1


Video
ID                             : 1
Format                         : AVC
Format/Info                    : Advanced Video Codec
Format profile                 : High@L4.1
Format settings                : CABAC / 4 Ref Frames
Format settings, CABAC         : Yes
Format settings, Reference fra : 4 frames
Codec ID                       : V_MPEG4/ISO/AVC
Duration                       : 21 min 32 s
Bit rate                       : 8 945 kb/s
Width                          : 1 920 pixels
Height                         : 1 080 pixels
Display aspect ratio           : 16:9
Frame rate mode                : Constant
Frame rate                     : 23.976 (24000/1001) FPS
Color space                    : YUV
Chroma subsampling             : 4:2:0
Bit depth                      : 8 bits
Scan type                      : Progressive
Bits/(Pixel*Frame)             : 0.180
Stream size                    : 1.35 GiB (94%)
Writing library                : x264 core 148 r2638 7599210
Encoding settings              : cabac=1 / ref=4 / deblock=1:-2:-2 / analyse=0x3:0x113 / me=umh / subme=9 / psy=1 / psy_rd=1.00:0.00 / mixed_ref=1 / me_range=24 / chroma_me=1 / trellis=1 / 8x8dct=1 / cqm=0 / deadzone=21,11 / fast_pskip=0 / chroma_qp_offset=-2 / threads=18 / lookahead_threads=2 / sliced_threads=0 / nr=0 / decimate=1 / interlaced=0 / bluray_compat=0 / constrained_intra=0 / bframes=5 / b_pyramid=2 / b_adapt=2 / b_bias=0 / direct=3 / weightb=1 / open_gop=0 / weightp=2 / keyint=250 / keyint_min=23 / scenecut=40 / intra_refresh=0 / rc_lookahead=50 / rc=crf / mbtree=1 / crf=17.0 / qcomp=0.60 / qpmin=0 / qpmax=69 / qpstep=4 / ip_ratio=1.40 / aq=1:1.00
Language                       : English
Default                        : No
Forced                         : No


Audio
ID                             : 2
Format                         : AC-3
Format/Info                    : Audio Coding 3
Commercial name                : Dolby Digital
Codec ID                       : A_AC3
Duration                       : 21 min 32 s
Bit rate mode                  : Constant
Bit rate                       : 384 kb/s
Channel(s)                     : 6 channels
Channel layout                 : L R C LFE Ls Rs
Sampling rate                  : 48.0 kHz
Frame rate                     : 31.250 FPS (1536 SPF)
Compression mode               : Lossy
Delay relative to video        : 100 ms
Stream size                    : 59.2 MiB (4%)
Service kind                   : Complete Main
Default                        : Yes
Forced                         : No

蓝光高清网提示您 点击下方附件名称 即可开始下载

破产姐妹 2.Broke.Girls.S05.1080p.HDTV.X264-美剧下载

破产姐妹话第五季全集 1080p.zip ( 1.92 MB )



破产姐妹中文字幕

破产姐妹.第5季.全22集[6.7]2.Broke.Girls.S05.1080p.WEB-DL.DD5.1.H.264-HKD.rar ( 467.22 KB )


加入蓝光高清网VIP会员  无限制下载本站所有资源---点这里

资源下载、资源播放、字幕使用、无法下载等常见问题---点这里
回复

使用道具 举报

全部回复4 显示全部楼层
cocolee 发表于 2022-1-28 19:23:43 | 显示全部楼层
谢谢分享好资源
回复 支持 反对

使用道具 举报

dongshouba手机认证 发表于 2022-1-29 00:15:29 | 显示全部楼层
感谢分享
回复

使用道具 举报

neo79手机认证 发表于 2022-2-18 06:41:45 来自手机 | 显示全部楼层
这个片子太逗了值得一看
回复 支持 反对

使用道具 举报

蓝色街灯 发表于 2022-2-19 12:38:22 | 显示全部楼层

感谢分享
回复

使用道具 举报

发表回复

您需要登录后才可以回帖 登录 | 立即注册

本版积分规则

联系客服 关注微信 下载APP 返回顶部 返回列表