蓝光高清网

搜索
开启左侧

[动作] WWE:强者生存 2021 WWE.Survivor.Series.2021.1080p.BluRay.x264-FREEMAN 22.13GB

蓝鸟 发表于 2022-1-25 21:49:20 | 显示全部楼层 |阅读模式
image.png

◎译  名 WWE:强者生存 2021
◎片  名 WWE Survivor Series 2021
◎年  代 2021
◎产  地 美国
◎类  别 动作 / 运动 / 真人秀
◎语  言 英语
◎上映日期 2021-11-21(美国)
◎导  演 凯文·杜恩 Kevin Dunn (id:1049634)
◎演  员 罗曼·雷恩斯 Roman Reigns (id:1382634)
       伊托尔·伊文 Ettore Ewen (id:1453960)
       萨莎·班克斯 Sasha Banks (id:1445950)
       比安卡·布莱尔 Bianca Blair (id:1454036)
       艾希莉·弗莱尔 Ashley Fliehr (id:1450808)
       芬·巴洛尔 Finn Balor (id:1390441)
       德鲁·盖洛韦 Drew Galloway (id:1243965)
       杰夫·哈迪 Jeff Hardy (id:1100405)
       保罗·海曼 Paul Heyman (id:1050616)
       瑞贝卡·奎恩 Rebecca Quin (id:1391573)
       兰迪·奥尔顿 Randy Orton (id:1000255)
       马修·里德尔 Matthew Riddle (id:1464757)
◎简  介

  由《红色通缉令》为您呈现的第35届Survivor Series将于东部时间2021年11月21日晚8点(北京时间11月22日早9点,垫场秀于8点开始)于纽约州纽约市的巴克莱中心(Barclays Center)举行!
  1. Video
  2. ID                                       : 1
  3. Format                                   : AVC
  4. Format/Info                              : Advanced Video Codec
  5. Format profile                           : [email protected]
  6. Format settings                          : CABAC / 4 Ref Frames
  7. Format settings, CABAC                   : Yes
  8. Format settings, Reference frames        : 4 frames
  9. Codec ID                                 : V_MPEG4/ISO/AVC
  10. Duration                                 : 3 h 11 min
  11. Bit rate                                 : 16.2 Mb/s
  12. Width                                    : 1 920 pixels
  13. Height                                   : 1 080 pixels
  14. Display aspect ratio                     : 16:9
  15. Frame rate mode                          : Constant
  16. Frame rate                               : 29.970 (30000/1001/189150) FPS
  17. Color space                              : YUV
  18. Chroma subsampling                       : 4:2:0
  19. Bit depth                                : 8 bits
  20. Scan type                                : Progressive
  21. Bits/(Pixel*Frame)                       : 0.260
  22. Stream size                              : 21.6 GiB (98%)
  23. Writing library                          : x264 core 164 r3081 19856cc
  24. Encoding settings                        : cabac=1 / ref=4 / deblock=1:-3:-3 / analyse=0x3:0x133 / me=umh / subme=9 / psy=1 / psy_rd=1.00:0.00 / mixed_ref=1 / me_range=16 / chroma_me=1 / trellis=2 / 8x8dct=1 / cqm=0 / deadzone=21,11 / fast_pskip=0 / chroma_qp_offset=-2 / threads=24 / lookahead_threads=2 / sliced_threads=0 / nr=0 / decimate=1 / interlaced=0 / bluray_compat=0 / constrained_intra=0 / bframes=3 / b_pyramid=2 / b_adapt=2 / b_bias=0 / direct=3 / weightb=1 / open_gop=0 / weightp=2 / keyint=250 / keyint_min=30 / scenecut=40 / intra_refresh=0 / rc_lookahead=60 / rc=crf / mbtree=1 / crf=20.0 / qcomp=0.60 / qpmin=0 / qpmax=69 / qpstep=4 / ip_ratio=1.40 / aq=3:1.00
  25. Default                                  : Yes
  26. Forced                                   : No
  27. Color range                              : Limited
  28. Matrix coefficients                      : BT.709

  29. Audio #1
  30. ID                                       : 2
  31. Format                                   : AC-3
  32. Format/Info                              : Audio Coding 3
  33. Commercial name                          : Dolby Digital
  34. Codec ID                                 : A_AC3
  35. Duration                                 : 3 h 11 min
  36. Bit rate mode                            : Constant
  37. Bit rate                                 : 192 kb/s
  38. Channel(s)                               : 2 channels
  39. Channel layout                           : L R
  40. Sampling rate                            : 48.0 kHz
  41. Frame rate                               : 31.250 FPS (1536 SPF)
  42. Compression mode                         : Lossy
  43. Stream size                              : 263 MiB (1%)
  44. Language                                 : German
  45. Service kind                             : Complete Main
  46. Default                                  : No
  47. Forced                                   : No

  48. Audio #2
  49. ID                                       : 3
  50. Format                                   : AC-3
  51. Format/Info                              : Audio Coding 3
  52. Commercial name                          : Dolby Digital
  53. Codec ID                                 : A_AC3
  54. Duration                                 : 3 h 11 min
  55. Bit rate mode                            : Constant
  56. Bit rate                                 : 192 kb/s
  57. Channel(s)                               : 2 channels
  58. Channel layout                           : L R
  59. Sampling rate                            : 48.0 kHz
  60. Frame rate                               : 31.250 FPS (1536 SPF)
  61. Compression mode                         : Lossy
  62. Stream size                              : 263 MiB (1%)
  63. Language                                 : English
  64. Service kind                             : Complete Main
  65. Default                                  : No
  66. Forced                                   : No

  67. Menu
  68. 00:00:00.000                             : en:00:00:00.000
  69. 00:00:29.696                             : en:00:00:29.696
  70. 00:08:37.851                             : en:00:08:37.851
  71. 00:32:42.561                             : en:00:32:42.561
  72. 01:19:39.074                             : en:01:19:39.074
  73. 01:22:23.438                             : en:01:22:23.438
  74. 01:40:00.928                             : en:01:40:00.928
  75. 02:01:15.368                             : en:02:01:15.368
  76. 02:03:08.214                             : en:02:03:08.214
  77. 02:35:03.761                             : en:02:35:03.761
  78. 02:41:17.167                             : en:02:41:17.167
复制代码

636571ae95168169ed9bf263b810306d.jpeg

蓝光高清网提示您 点击下方附件名称 即可开始下载

WWE:强者生存 2021 WWE.Survivor.Series.2021.1080p.BluRay.x264-FREEMAN 22.13GB

WWE.Survivor.Series.2021.1080p.BluRay.x264-FREEMAN.torrent ( 28.38 KB )


加入蓝光高清网VIP会员  无限制下载本站所有资源---点这里

资源下载、资源播放、字幕使用、无法下载等常见问题---点这里
回复

使用道具 举报

全部回复1 显示全部楼层
笑沧海手机认证 发表于 2022-2-3 03:39:55 | 显示全部楼层
应该很好看
回复 支持 反对

使用道具 举报

发表回复

您需要登录后才可以回帖 登录 | 立即注册

本版积分规则

联系客服 关注微信 下载APP 返回顶部 返回列表