蓝光高清网

搜索
开启左侧

[喜剧] 大红狗克里弗 Clifford.The.Big.Red.Dog.2021.1080p.BluRay.x264.TrueHD.7.1.Atmos-MT 11.12GB

蓝鸟 发表于 2022-1-25 21:50:57 | 显示全部楼层 |阅读模式
image.png

◎译  名 大红狗克里弗 / 赤BIG灵灵狗(港)
◎片  名 Clifford the Big Red Dog
◎年  代 2021
◎产  地 英国 / 加拿大 / 美国
◎类  别 喜剧 / 家庭 / 冒险
◎语  言 英语
◎上映日期 2021-11-10(美国)
◎豆瓣评分 6.3/10 (2680人评价)
◎片  长 97分钟
◎导  演 沃尔特·拜克 Walt Becker (id:1050089)
◎编  剧 杰·舒瑞克 Jay Scherick (id:1296851)
       大卫·隆恩 David Ronn (id:1295998)
       布莱斯·海明威 Blaise Hemingway (id:1201753)
       麦弘文 Justin Malen (id:1364026)
       埃伦·拉波波特 Ellen Rapoport (id:1464058)
       罗曼·布莱德威尔 Norman Bridwell (id:1006041)
◎演  员 达比·坎普 Darby Camp (id:1369479)
       杰克·怀特霍尔 Jack Whitehall (id:1266876)
       伊扎克·王 Izaac Wang (id:1432647)
       约翰·克里斯 John Cleese (id:1041137)
       西耶娜·盖尔利 Sienna Guillory (id:1031810)
       托尼·海尔 Tony Hale (id:1027852)
       大卫·艾兰·格里尔 David Alan Grier (id:1010694)
       霍拉提奥·桑斯 Horatio Sanz (id:1140387)
       保罗·罗德里奇斯 Paul Rodriguez (id:1148534)
       拉塞尔·皮特斯 Russell Peters (id:1027488)
       基思·埃威尔 Keith Ewell (id:1087907)
       拜尔·艾伦·布莱恩 Bear Allen-Blaine (id:1464059)
       托芙·菲尔德舒 Tovah Feldshuh (id:1016713)
       杰西卡·基南·温 Jessica Keenan Wynn (id:1385958)
       泰·琼斯 Ty Jones (id:1464060)
       王盛德 Russell Wong (id:1032117)
       希博汗·法隆 Siobhan Fallon (id:1080248)
       雅莎·杰克逊 Yasha Jackson (id:1447719)
       亚历克斯·莫法特 Alex Moffat (id:1389518)
       基南·汤普森 Kenan Thompson (id:1044941)
       罗茜·佩雷兹 Rosie Perez (id:1049680)
       安娜贝尔·布莱特 Annabel Barrett (id:1438785)
       Neil Hellegers Neil Hellegers (id:1272019)
       凯伦·琳恩·高妮 Karen Lynn Gorney (id:1004887)
       杰克逊·弗雷泽 Jackson Frazer (id:1378569)
       丹妮尔·古尔丁 Danielle Guldin (id:1392101)
       亚历山德拉·艾布拉姆斯 Alexandra Abrams (id:1392931)
       马科·查卡 Marko Caka (id:1360577)
       梅兰妮·钱德拉 Melanie Chandra (id:1351348)
       卡伦·科尔 Karen Cole (id:1400321)
       罗比·德拉费勒 Robbie DeRaffele (id:1393414)
       马修·古利 Matthew Gooley (id:1239524)
       桃乐丝·麦卡锡 Doris McCarthy (id:1388388)
       莎莉·谢巴德 Sally Shepard (id:1139402)
       汤姆·斯特拉特福 Tom Stratford (id:1251841)
       约翰·戴布尼 John Debney (id:1025369)
◎简  介

  影片改编自同名畅销童书《Clifford the Big Red Dog》,讲述在纽约,小女孩Emily Elizabeth(达比·坎普 饰)得到了一条小狗,这只名叫克里弗的红色狗子乖巧可爱,成为了在学校不合群、孤独的她的好朋友。但狗狗慢慢长成了庞然大物,被一家生物基因公司看上了,Emily和叔叔Casy(杰克·怀特霍尔 饰)必须带着它逃开贪婪之人的追捕。
  1. Video
  2. ID                                       : 1
  3. Format                                   : AVC
  4. Format/Info                              : Advanced Video Codec
  5. Format profile                           : [email protected]
  6. Format settings                          : CABAC / 4 Ref Frames
  7. Format settings, CABAC                   : Yes
  8. Format settings, Reference frames        : 4 frames
  9. Codec ID                                 : V_MPEG4/ISO/AVC
  10. Duration                                 : 1 h 36 min
  11. Bit rate                                 : 11.3 Mb/s
  12. Width                                    : 1 920 pixels
  13. Height                                   : 960 pixels
  14. Display aspect ratio                     : 2.000
  15. Frame rate mode                          : Constant
  16. Frame rate                               : 23.976 (24000/1001/189150) FPS
  17. Color space                              : YUV
  18. Chroma subsampling                       : 4:2:0
  19. Bit depth                                : 8 bits
  20. Scan type                                : Progressive
  21. Bits/(Pixel*Frame)                       : 0.255
  22. Stream size                              : 7.59 GiB (68%)
  23. Writing library                          : x264 core 157 r2938 2b00a84 [email protected] Mod
  24. Encoding settings                        : cabac=1 / ref=4 / deblock=1:-3:-3 / analyse=0x3:0x133 / me=umh / subme=10 / psy=1 / psy_rd=1.05:0.00 / mixed_ref=1 / me_range=32 / chroma_me=1 / trellis=2 / 8x8dct=1 / cqm=0 / deadzone=21,11 / fast_pskip=0 / chroma_qp_offset=-2 / threads=12 / lookahead_threads=2 / sliced_threads=0 / nr=0 / decimate=0 / interlaced=0 / bluray_compat=0 / constrained_intra=0 / bframes=8 / b_pyramid=2 / b_adapt=2 / b_bias=0 / direct=3 / weightb=1 / open_gop=0 / weightp=2 / keyint=250 / keyint_min=24 / scenecut=40 / intra_refresh=0 / rc_lookahead=250 / rc=crf / mbtree=0 / crf=16.8 / qcomp=0.60 / qpmin=0 / qpmax=69 / qpstep=4 / vbv_maxrate=62500 / vbv_bufsize=78125 / crf_max=0.0 / nal_hrd=none / filler=0 / ip_ratio=1.30 / pb_ratio=1.20 / aq=3:0.80
  25. Language                                 : English
  26. Default                                  : Yes
  27. Forced                                   : No
  28. Color range                              : Limited
  29. Color primaries                          : BT.709
  30. Matrix coefficients                      : BT.709
  31. Audio #1
  32. ID                                       : 2
  33. Format                                   : MLP FBA 16-ch
  34. Format/Info                              : Meridian Lossless Packing FBA with 16-channel presentation
  35. Commercial name                          : Dolby TrueHD with Dolby Atmos
  36. Codec ID                                 : A_TRUEHD
  37. Duration                                 : 1 h 36 min
  38. Bit rate mode                            : Variable
  39. Bit rate                                 : 4 497 kb/s
  40. Maximum bit rate                         : 7 050 kb/s
  41. Channel(s)                               : 8 channels
  42. Channel layout                           : L R C LFE Ls Rs Lb Rb
  43. Sampling rate                            : 48.0 kHz
  44. Frame rate                               : 1 200.000 FPS (40 SPF)
  45. Compression mode                         : Lossless
  46. Stream size                              : 3.03 GiB (27%)
  47. Language                                 : English
  48. Default                                  : Yes
  49. Forced                                   : No
  50. Number of dynamic objects                : 11
  51. Bed channel count                        : 1 channel
  52. Bed channel configuration                : LFE
  53. Audio #2
  54. ID                                       : 3
  55. Format                                   : AC-3
  56. Format/Info                              : Audio Coding 3
  57. Commercial name                          : Dolby Digital
  58. Codec ID                                 : A_AC3
  59. Duration                                 : 1 h 36 min
  60. Bit rate mode                            : Constant
  61. Bit rate                                 : 640 kb/s
  62. Channel(s)                               : 6 channels
  63. Channel layout                           : L R C LFE Ls Rs
  64. Sampling rate                            : 48.0 kHz
  65. Frame rate                               : 31.250 FPS (1536 SPF)
  66. Compression mode                         : Lossy
  67. Stream size                              : 441 MiB (4%)
  68. Language                                 : English
  69. Service kind                             : Complete Main
  70. Default                                  : No
  71. Forced                                   : No
  72. Text #1
  73. ID                                       : 4
  74. Format                                   : UTF-8
  75. Codec ID                                 : S_TEXT/UTF8
  76. Codec ID/Info                            : UTF-8 Plain Text
  77. Duration                                 : 1 h 27 min
  78. Bit rate                                 : 78 b/s
  79. Count of elements                        : 1664
  80. Stream size                              : 50.2 KiB (0%)
  81. Language                                 : English
  82. Default                                  : Yes
  83. Forced                                   : No
  84. Text #2
  85. ID                                       : 5
  86. Format                                   : PGS
  87. Muxing mode                              : zlib
  88. Codec ID                                 : S_HDMV/PGS
  89. Codec ID/Info                            : Picture based subtitle format used on BDs/HD-DVDs
  90. Duration                                 : 1 h 27 min
  91. Bit rate                                 : 54.1 kb/s
  92. Count of elements                        : 3362
  93. Stream size                              : 34.0 MiB (0%)
  94. Language                                 : English
  95. Default                                  : No
  96. Forced                                   : No
  97. Menu
  98. 00:00:00.000                             : en:Chapter 01
  99. 00:06:33.059                             : en:Chapter 02
  100. 00:13:48.578                             : en:Chapter 03
  101. 00:18:39.285                             : en:Chapter 04
  102. 00:25:50.632                             : en:Chapter 05
  103. 00:34:04.167                             : en:Chapter 06
  104. 00:39:43.798                             : en:Chapter 07
  105. 00:48:37.331                             : en:Chapter 08
  106. 00:56:41.273                             : en:Chapter 09
  107. 01:02:47.597                             : en:Chapter 10
  108. 01:08:56.507                             : en:Chapter 11
  109. 01:12:35.643                             : en:Chapter 12
  110. 01:20:14.810                             : en:Chapter 13
  111. 01:30:53.198                             : en:Chapter 14
复制代码

8970eef85cef5dab250cf2dc7da860a5.png
83abe42f11fe70606ddca7842ced3a42.png
5ec9e52d8eced1425dbdda65fc161b3b.png

蓝光高清网提示您 点击下方附件名称 即可开始下载

多版本下载时请注意区分

大红狗克里弗 Clifford.The.Big.Red.Dog.2021.1080p.BluRay.x264.TrueHD.7.1.Atmos-MT 11.12GB

Clifford.The.Big.Red.Dog.2021.1080p.BluRay.x264.TrueHD.7.1.Atmos-MT.torrent ( 14.56 KB )


大红狗克里弗 Clifford.The.Big.Red.Dog.2021.1080p.BluRay.x264.DTS-MT 8.61GB

Clifford.The.Big.Red.Dog.2021.1080p.BluRay.x264.DTS-MT.torrent ( 22.17 KB )


大红狗克里弗 Clifford.The.Big.Red.Dog.2021.1080p.BluRay.x264.DTS-HD.MA.7.1-MT 10.23GB

Clifford.The.Big.Red.Dog.2021.1080p.BluRay.x264.DTS-HD.MA.7.1-MT.torrent ( 13.44 KB )


加入蓝光高清网VIP会员  无限制下载本站所有资源---点这里

资源下载、资源播放、字幕使用、无法下载等常见问题---点这里
回复

使用道具 举报

全部回复3 显示全部楼层
PCHUN 发表于 2022-1-26 00:46:31 | 显示全部楼层
Thanks for sharing
回复 支持 反对

使用道具 举报

xiaowu20022手机认证 发表于 2022-1-28 22:20:39 | 显示全部楼层
这个红狗狗 特别搞笑
回复 支持 反对

使用道具 举报

笑沧海手机认证 发表于 2022-2-3 03:39:30 | 显示全部楼层
下载看看
回复

使用道具 举报

发表回复

您需要登录后才可以回帖 登录 | 立即注册

本版积分规则

联系客服 关注微信 下载APP 返回顶部 返回列表