蓝光高清网

搜索
开启左侧

[剧情] 偷吻 Stolen.Kisses.1968.1080p.BluRay.x264-FAPCAVE 6.56GB

蓝鸟 发表于 2022-1-25 21:53:07 | 显示全部楼层 |阅读模式
image.png

◎译  名 偷吻 / Stolen Kisses
◎片  名 Baisers volés
◎年  代 1968
◎产  地 法国
◎类  别 剧情 / 喜剧 / 爱情
◎语  言 法语
◎上映日期 1968-09-04(阿维尼翁电影节/法国)
◎豆瓣评分 7.8/10 (4671人评价)
◎片  长 90 分钟
◎导  演 弗朗索瓦·特吕弗 Fran?ois Truffaut (id:1054852)
◎编  剧 弗朗索瓦·特吕弗 Fran?ois Truffaut (id:1054852)
       克劳德·德吉弗雷 Claude de Givray (id:1001941)
◎演  员 让-皮埃尔·利奥德 Jean-Pierre Léaud (id:1022553)
       德菲因·塞里格 Delphine Seyrig (id:1000594)
       克洛德·雅德 Claude Jade (id:1028092)
       迈克尔·朗斯代尔 Michael Lonsdale (id:1035664)
       Claire Duhamel Claire Duhamel (id:1088525)
       玛丽-弗朗丝·皮西尔 Marie-France Pisier (id:1045333)
       马汀娜·波萨 Martine Brochard (id:1316075)
       Catherine Lutz Catherine Lutz (id:1355044)
       弗朗索瓦·特吕弗 Fran?ois Truffaut (id:1054852)
◎简  介

  本片是特吕弗著名的“安托万系列”的第三部,但影迷通常忽视短片《Antoine et Colette》误将其认作第二部。                                    
                                23岁的Antoine Doinel(Jean-Pierre Léaud 让-皮埃尔?李奥)从军队逃出后,虽侥幸逃脱惩罚,却因殴打警察入狱,不良记录对 他找工作造成妨碍,他先后做过旅店守门人、私家侦探等职业。过程中,安托万联系上了昔日女友克里斯汀。两人的感情暧昧而不确定。而按客户要求混进一家鞋店盯梢风情万种的老板娘时,他又将其迷上,感情的天平开始在两个女人之间摇摆。
◎获奖情况 (共1项)
  第41届奥斯卡金像奖 (1969)
  最佳外语片(提名)
  1. Video
  2. ID                                       : 1
  3. Format                                   : AVC
  4. Format/Info                              : Advanced Video Codec
  5. Format profile                           : [email protected]
  6. Format settings                          : CABAC / 4 Ref Frames
  7. Format settings, CABAC                   : Yes
  8. Format settings, Reference frames        : 4 frames
  9. Codec ID                                 : V_MPEG4/ISO/AVC
  10. Duration                                 : 1 h 31 min
  11. Bit rate                                 : 9 642 kb/s
  12. Width                                    : 1 808 pixels
  13. Height                                   : 1 080 pixels
  14. Display aspect ratio                     : 5:3
  15. Frame rate mode                          : Constant
  16. Frame rate                               : 24.000 FPS
  17. Color space                              : YUV
  18. Chroma subsampling                       : 4:2:0
  19. Bit depth                                : 8 bits
  20. Scan type                                : Progressive
  21. Bits/(Pixel*Frame)                       : 0.206
  22. Stream size                              : 6.15 GiB (94%)
  23. Writing library                          : x264 core 142 r2453 ea0ca51
  24. Encoding settings                        : cabac=1 / ref=4 / deblock=1:0:0 / analyse=0x3:0x133 / me=umh / subme=8 / psy=1 / psy_rd=1.00:0.00 / mixed_ref=1 / me_range=16 / chroma_me=1 / trellis=1 / 8x8dct=1 / cqm=0 / deadzone=21,11 / fast_pskip=0 / chroma_qp_offset=-2 / threads=12 / lookahead_threads=2 / sliced_threads=0 / nr=0 / decimate=1 / interlaced=0 / bluray_compat=0 / constrained_intra=0 / bframes=3 / b_pyramid=2 / b_adapt=2 / b_bias=0 / direct=3 / weightb=1 / open_gop=0 / weightp=2 / keyint=250 / keyint_min=24 / scenecut=40 / intra_refresh=0 / rc_lookahead=50 / rc=2pass / mbtree=1 / bitrate=9642 / ratetol=1.0 / qcomp=0.60 / qpmin=0 / qpmax=69 / qpstep=4 / cplxblur=20.0 / qblur=0.5 / ip_ratio=1.40 / aq=1:1.00
  25. Language                                 : English
  26. Default                                  : Yes
  27. Forced                                   : No
  28. Audio
  29. ID                                       : 2
  30. Format                                   : AC-3
  31. Format/Info                              : Audio Coding 3
  32. Commercial name                          : Dolby Digital
  33. Codec ID                                 : A_AC3
  34. Duration                                 : 1 h 31 min
  35. Bit rate mode                            : Constant
  36. Bit rate                                 : 640 kb/s
  37. Channel(s)                               : 2 channels
  38. Channel layout                           : L R
  39. Sampling rate                            : 48.0 kHz
  40. Frame rate                               : 31.250 FPS (1536 SPF)
  41. Compression mode                         : Lossy
  42. Stream size                              : 418 MiB (6%)
  43. Language                                 : French
  44. Service kind                             : Complete Main
  45. Default                                  : Yes
  46. Forced                                   : No
  47. Text
  48. ID                                       : 3
  49. Format                                   : UTF-8
  50. Codec ID                                 : S_TEXT/UTF8
  51. Codec ID/Info                            : UTF-8 Plain Text
  52. Duration                                 : 1 h 30 min
  53. Bit rate                                 : 41 b/s
  54. Count of elements                        : 976
  55. Stream size                              : 27.9 KiB (0%)
  56. Language                                 : English
  57. Default                                  : Yes
  58. Forced                                   : No
  59. Menu
  60. 00:00:00.000                             : en:00:00:00.000
  61. 00:09:44.292                             : en:00:09:44.292
  62. 00:20:39.667                             : en:00:20:39.667
  63. 00:29:45.375                             : en:00:29:45.375
  64. 00:36:11.583                             : en:00:36:11.583
  65. 00:41:03.750                             : en:00:41:03.750
  66. 00:49:48.417                             : en:00:49:48.417
  67. 00:57:07.208                             : en:00:57:07.208
  68. 01:06:12.417                             : en:01:06:12.417
  69. 01:12:38.083                             : en:01:12:38.083
  70. 01:18:48.792                             : en:01:18:48.792
  71. 01:26:25.667                             : en:01:26:25.667
复制代码

ea8f7d4114641fcdbb8326be6d4aeb13.png
b5ed3ced63bf603b4be96951c1ad6afb.png
449897a1369eff5c8974f0e5ef791956.png

蓝光高清网提示您 点击下方附件名称 即可开始下载

偷吻 Stolen.Kisses.1968.1080p.BluRay.x264-FAPCAVE 6.56GB

Stolen.Kisses.1968.1080p.BluRay.x264-FAPCAVE.torrent ( 17.08 KB )

加入蓝光高清网VIP会员  无限制下载本站所有资源---点这里

资源下载、资源播放、字幕使用、无法下载等常见问题---点这里
回复

使用道具 举报

全部回复2 显示全部楼层
PCHUN 发表于 2022-1-26 00:45:40 | 显示全部楼层
Thanks for sharing
回复 支持 反对

使用道具 举报

笑沧海手机认证 发表于 2022-2-3 03:39:06 | 显示全部楼层
真的好看
回复

使用道具 举报

发表回复

您需要登录后才可以回帖 登录 | 立即注册

本版积分规则

联系客服 关注微信 下载APP 返回顶部 返回列表