蓝光高清网

搜索
开启左侧

轮回 4k.Samsara.2011.2160p.WEB-DL.x265.10bit.HDR.DTS-HD.MA.5.1 纪录片下载—22.84 GB

蓝鸟 发表于 2022-1-25 22:14:47 | 显示全部楼层 |阅读模式
轮回 豆瓣评分: 9.1分
上映时间:2011年
类型:纪录 
地区:美国 
导演:罗恩·弗里克
主演:邰丽华
画质标准:4K HDR  封装音轨:DTS-HD.MA 5.1 
简       介4 m6 }7 ^$ r4 O( ?) l
; N& k1 r: l$ O2 A9 B- g  y9 _
  灵动的音符与舞步,天真无邪且充满信仰的双眸,开启了一段关于无始劫来轮回不休的沉思之旅。塔庙林立的蒲甘,华丽庄严的教堂,是人类千百年来对神性乃至觉悟的向往。斗转星移,物我两忘,风水雨火肆意涂抹着大地的容貌,所谓崇高的生命在自然的心中不著痕迹,蕞尔不及碎遍三千大千世界后的一抹微尘。只是,颠倒众生,刹那视若永恒,朝夕奔忙,不曾停歇,以污泥、刀锋涂改着各自的容颜。自诩万物之主,左右你我他的生命。从天上到地下,从高山到深洋,征服了如梦如幻的器世界,用光怪陆离的玩具将其装点,终不免在永业的轮回中败下阵来。一切无常,正如华美庄严的坛城,轻轻拂拭,还为尘沙……
* I: Y# c6 c7 c4 ]  本片历时5年拍摄,足迹遍布五大洲25个国家,荣获2012年读柏林国际电影节影评人最佳纪录片奖。
7 j& q! D% ^7 o- _1 o6 {
6 J1 K2 @, J+ Q

9 ^, T7 i4 h: J" }  o! U5 O. j影片参数
; O' g& D5 ?% ~; d: e
轮回4k.Samsara.2011.2160p.WEB-DL.x265.10bit.HDR.DTS-HD.MA.5.1电影信息
" Z! I/ R; X- C3 ^1 l  YVideo8 l* p" i3 z* G
ID : 1
* R% C0 H! Y# k' I; v1 SFormat : HEVC. K% O( R$ W% p3 @3 X0 ^
Format/Info : High Efficiency Video Coding  X/ M/ s1 \7 y: C
Format profile : Main 10@L5@High
: J! ]( G+ q, ^2 r5 P+ ]; wHDR format : SMPTE ST 2086, HDR10 compatible
$ ~8 @* G3 P1 a# |Codec ID : V_MPEGH/ISO/HEVC
2 J6 x6 }5 O! E$ s6 K. j* mDuration : 1 h 42 min& Y! P  m2 n( F: _5 W
Bit rate : 24.3 Mb/s
. b- B3 C- b) F! nWidth : 3 840 pixels
9 x5 T2 Z2 C2 S( L) U' wHeight : 1 596 pixels  V" D2 t: o. x- q. S, y
Display aspect ratio : 2.40:1- c# E) }" n2 c) B
Frame rate mode : Constant
  @4 ~3 j+ T: x4 w' J8 f2 C# S) d# t3 zFrame rate : 23.976 FPS, n3 u/ u% l" Q# Q# ^/ j
Color space : YUV! L! i9 g3 F9 f. E
Chroma subsampling : 4:2:0 (Type 2)  ~' X0 n9 k8 X/ X0 K8 w. o
Bit depth : 10 bits) _) y  J$ o5 W! `" }. u. F9 s3 X
Bits/(Pixel*Frame) : 0.166
( U! g9 W! {7 |- V* V& x3 X' e3 P/ FStream size : 17.4 GiB (76%). \: E8 O0 Y" t& `, d+ T
Default : Yes
$ F7 f( K7 J: D7 ~3 }1 }Forced : No0 M- g/ S. l3 n- c( x& j
Color range : Limited2 Y# a  c4 M1 H6 K6 {
Color primaries : BT.2020' j* e; b! H. {8 ^
Transfer characteristics : PQ. ^2 ^/ `, A" W6 K. ^- e! @& d! Z7 D4 v
Matrix coefficients : BT.2020 non-constant% I$ m5 R: \( H- B& D$ P
Mastering display color primaries : BT.2020
! n4 Z9 T5 p: P' @, N" h0 wMastering display luminance : min: 0.0050 cd/m2, max: 4000 cd/m2
3 _6 M( I. f. oMaximum Content Light Level : 999 cd/m2- u2 e& z) S1 D6 r. `6 A
Maximum Frame-Average Light Level : 468 cd/m2
4 t; e4 r1 a  {' H, N1 W
1 Q& A2 c7 r% v  F! |6 u: l7 K
" E0 b: I5 `) V! Z" A0 t
Audio #1
6 v. n% Z/ T7 j, H6 vID : 2
) z8 E2 m6 H* U% xFormat : DTS XLL; ]; q, q2 A7 g) z9 h; q
Format/Info : Digital Theater Systems: n0 z* M  D2 x
Commercial name : DTS-HD Master Audio
& k, e# N( I2 [+ |% V  z6 ]Codec ID : A_DTS
- o( m: E" S7 I0 _0 ODuration : 1 h 42 min
+ a! @8 j4 M$ l2 @Bit rate mode : Variable
- P# A" r$ U5 A' ~: w/ f9 mBit rate : 6 881 kb/s, R7 A; Q8 |6 G2 D3 s: C# e9 R
Channel(s) : 8 channels
$ X* H' D* f6 V2 `  ~; q$ N8 |Channel layout : C L R LFE Lb Rb Lss Rss
) I. _& J  Z9 x9 O4 pSampling rate : 96.0 kHz
4 p% T$ b4 m! p+ ~% f6 ^Frame rate : 187.500 FPS (512 SPF)
4 R0 N; g, k! l/ q$ v7 sBit depth : 24 bits4 x+ Y# b' B; ~* @6 H
Compression mode : Lossless
& U5 K6 ]! j: m( B7 _8 K6 BDelay relative to video : 7 s 90 ms6 g4 `) i( U" P7 p, d
Stream size : 4.91 GiB (21%)# M* P. l9 M, q4 u) r7 p$ y% r
Language : English
# c% W8 p% g4 z2 W4 EDefault : Yes6 T  |3 b; f  q" y# H9 }
Forced : No
$ s: }  H0 j2 Q2 q' L5 H  V1 m5 ]" E- |5 I  T
% T% q5 y: b8 O' }
Audio #24 ~) G2 _& W7 g+ l- l( [! `
ID : 3
; Q4 F' N% }4 p  ?2 eFormat : E-AC-3 JOC9 x2 U; {. B, R. T
Format/Info : Enhanced AC-3 with Joint Object Coding
  E& _  R/ J+ x! b3 _& {! G) \Commercial name : Dolby Digital Plus with Dolby Atmos" R6 U! e- r* R% ]5 b6 u4 E! [
Codec ID : A_EAC3# y+ A& U- w0 P0 F
Duration : 1 h 42 min# _3 |3 A9 f0 H! v
Bit rate mode : Constant& X8 R8 |# F: I
Bit rate : 768 kb/s
3 v; W# q5 m. T' e: w% LChannel(s) : 6 channels
! c( H2 F) l# Z2 `Channel layout : L R C LFE Ls Rs
( ]8 F/ }: G1 z" T5 o3 u& S2 \Sampling rate : 48.0 kHz" q5 D  n. V8 @0 ?$ u: z
Frame rate : 31.250 FPS (1536 SPF)9 W! z- r/ C" `6 @+ B3 j7 z7 ]% H
Compression mode : Lossy1 `$ L" M. G2 k, D' F! ^9 p
Stream size : 562 MiB (2%)
9 A7 \; Z- O" |( V, LTitle : WEB / Compatibilty
" O* r# y7 s% j# z; u, ~) ], B. eLanguage : English% X# E: G2 x& [
Service kind : Complete Main' }" x* s9 q+ l$ ^
Default : No! v1 G. T* j" D" a1 v- _5 O" t
Forced : No$ S5 i6 u4 ~. o$ Q1 ~2 G7 @1 T+ F
Complexity index : 16
  \, ^: G4 F" p8 }Number of dynamic objects : 15
1 t  `+ @9 n# P$ ABed channel count : 1 channel
& @4 ^+ c. x# S. t3 d! JBed channel configuration : LFE
, V' H7 ]) U' ?
蓝光高清网提示您 点击下方附件名称 即可开始下载) ?! Q. V* s, q
( D+ t# C, P$ O/ N& s
8 {! w' P. d  i  T
轮回4k.Samsara.2011.2160p.WEB-DL.x265.10bit.HDR.DTS-HD.MA.5.1电影下载0 ~, x: \1 ]  h4 N
- C* A$ f3 l# C9 J1 F0 x
轮回4k.Samsara.2011.2160p.WEB-DL.x265.10bit.HDR.DTS-HD.MA.5.1【22.84 GB】
* o: n* |2 O/ o5 e/ ~2 V

轮回4k.Samsara.2011.2160p.WEB-DL.x265.10bit.HDR.DTS-HD.MA.5.1-TEPES.torrent ( 29.18 KB )


5 \3 S: |; e9 a5 Z% p2 K# v" v* ~& i) `% S+ K) [
轮回中文字幕下载  匹配蓝光高清网4k版本
" K; V7 x! H. V* L  H, S# @; h' K$ |

Samsara.ass ( 16.89 KB )

: i, G  c0 g- ]5 P3 [
0 u7 i9 P/ r3 Z: d3 ^

' |2 M" Z5 G( k( A9 L9 u
加入蓝光高清网VIP会员  无限制下载本站所有资源---点这里

资源下载、资源播放、字幕使用、无法下载等常见问题---点这里
回复

使用道具 举报

全部回复4 显示全部楼层
再会未来 发表于 2022-1-26 19:47:00 | 显示全部楼层
谢谢分享
回复

使用道具 举报

wangzhang3手机认证 发表于 2022-2-7 14:34:53 来自手机 | 显示全部楼层
是好片,谢谢分享
回复 支持 反对

使用道具 举报

gdlmxia 发表于 2022-4-3 21:14:13 | 显示全部楼层
廣東龍門永遠馬到成功&萬分感謝版主的無私發佈分享%
回复 支持 反对

使用道具 举报

蓝色街灯 发表于 2022-4-18 07:58:27 | 显示全部楼层
萬分感謝版主的無私發佈分享
回复 支持 反对

使用道具 举报

发表回复

您需要登录后才可以回帖 登录 | 立即注册

本版积分规则

联系客服 关注微信 下载APP 返回顶部 返回列表