本站已运行

蓝光高清网

搜索
开启左侧

奇妙的海洋 Wonders.of.the.Sea.2017.3D.1080p.BluRay.x264-JustWatch 7.93GB

 
蓝鸟 发表于 2022-2-20 15:02:54 | 显示全部楼层 |阅读模式
奇妙的海洋 豆瓣评分: 8.2分
片长: 82分钟 ( 2017年上映)
类型:记录 
导演:Jean-Michel Cousteau / 让-贾克·曼德罗
主演:阿诺·施瓦辛格 / Jean-Michel Cousteau / Fabien Cousteau / Celine Cousteau
3 D 格式:hsbs 

封装音轨:Dolby TrueHD 5.1 
简       介
; S, I* O& C0 T( t
, m% e: m' @! P0 k! K7 N4 `  凭借尖端的 3D 技术,法国海洋探险家让-米歇尔·库斯托和他的成年子女探索海洋,了解是什么让海洋处于危险之中。$ e2 Y$ _( |' k2 X& o# x, [, R

* L5 d# P* n" t/ \: W4 X
+ b7 D* g$ X4 c% D  P
影片参数
5 Q) c2 o/ S9 q( I" c  _
Video
( ^  b( I5 I* U" H0 xID                                       : 1
. n) ^) N% S) d6 B4 `Format                                   : AVC" C, T. b& O) h- v
Format/Info                              : Advanced Video Codec
' W3 s) `! P6 A( R: q  ^Format profile                           : [email protected]
3 o& e& i) }' B2 U9 HFormat settings                          : CABAC / 5 Ref Frames
" o6 p! K6 Y* N* q0 d" l, \' GFormat settings, CABAC                   : Yes( ]1 O) w$ q  W9 z! C) h! {
Format settings, Reference frames        : 5 frames  F' X9 u1 D/ k, z% U: _! M
Codec ID                                 : V_MPEG4/ISO/AVC  z' b, M% ~; b' n8 @( ]; N+ x, y' r
Duration                                 : 1 h 23 min
( }6 l" @( P; c# n; W$ c+ D" M1 QBit rate                                 : 11.5 Mb/s
4 j* T2 {1 ~# g; i% Q1 Y4 ^Width                                    : 1 920 pixels2 m& \4 ~( z0 s4 y" `, _0 Y3 B
Height                                   : 804 pixels
) Q+ d# F1 y' }% c- J0 n) j' s3 ]Display aspect ratio                     : 2.40:1
+ F3 P. o5 h: J, D- k4 AFrame rate mode                          : Constant
/ k9 ?3 y- e9 T# \9 w  c& LFrame rate                               : 23.976 FPS
: l0 ]/ Y  Y9 @  ~& _, d$ wColor space                              : YUV4 P8 D: v' \0 U
Chroma subsampling                       : 4:2:0( ~6 O$ K6 y1 |2 e7 F, F3 s; i) s
Bit depth                                : 8 bits
8 `8 }: \) f& U2 }1 Y# jScan type                                : Progressive
8 g* f2 @' y) U* Y2 a8 ~Bits/(Pixel*Frame)                       : 0.312/ a+ p' y: C  `( \1 S+ F3 l" t
Stream size                              : 6.76 GiB (85%)
+ Z7 e/ [5 e2 _4 s# c' L6 ]" YWriting library                          : x264 core 164 r3081 19856cc1 z% J; w+ ]  ~
Encoding settings                        : cabac=1 / ref=5 / deblock=1:-3:-3 / analyse=0x3:0x133 / me=umh / subme=8 / psy=1 / psy_rd=1.00:0.15 / mixed_ref=1 / me_range=16 / chroma_me=1 / trellis=2 / 8x8dct=1 / cqm=0 / deadzone=21,11 / fast_pskip=0 / chroma_qp_offset=-3 / threads=24 / lookahead_threads=4 / sliced_threads=0 / nr=0 / decimate=1 / interlaced=0 / bluray_compat=0 / constrained_intra=0 / bframes=3 / b_pyramid=2 / b_adapt=1 / b_bias=0 / direct=3 / weightb=1 / open_gop=0 / weightp=2 / keyint=250 / keyint_min=23 / scenecut=40 / intra_refresh=0 / rc_lookahead=50 / rc=crf / mbtree=1 / crf=20.0 / qcomp=0.60 / qpmin=0 / qpmax=69 / qpstep=4 / ip_ratio=1.40 / aq=1:1.00; G2 |. w, V& S& I! T  K
Language                                 : English) C% s! v2 Z# s8 \8 ^& P
Default                                  : Yes5 n. {" [8 D# e' @1 B
Forced                                   : No, S  q- H' X/ S2 E2 f7 k
5 R2 ~# A: `' T+ J  {
0 v+ \. X( P1 A5 ]9 \1 J* b4 b
Audio* r2 u2 M. J# }& m' r: ~1 l5 h
ID                                       : 2
! f  c( c7 `( z% ?" FFormat                                   : DTS XLL
& y8 \& b5 _0 ^+ Q) V* ^Format/Info                              : Digital Theater Systems
+ [1 `2 P7 K8 L- M  b9 \- w3 ^+ dCommercial name                          : DTS-HD Master Audio+ \1 Q1 [5 ?1 Q7 o; \
Codec ID                                 : A_DTS, l, m. U, i( @  ~$ e; W; n
Duration                                 : 1 h 23 min5 {' A# x8 j8 |: M
Bit rate mode                            : Variable4 V$ D) z. C& q6 X2 p3 O9 L- G1 ?
Bit rate                                 : 1 978 kb/s! G; b$ F! ?, f2 w6 D5 Q* W
Channel(s)                               : 6 channels- f# K$ {8 A: h4 ^! T
Channel layout                           : C L R Ls Rs LFE
/ x: [! _# K5 L/ jSampling rate                            : 48.0 kHz
1 }6 c/ H! x; a) CFrame rate                               : 93.750 FPS (512 SPF)
) ?2 R2 S$ b% S' `Bit depth                                : 16 bits! i1 q6 g- X# O" j/ o4 v" ~+ R3 ~
Compression mode                         : Lossless& t4 ~7 f. ?/ F  n) q8 N) q! o
Stream size                              : 1.16 GiB (15%)
. q! J- K7 A3 K- iLanguage                                 : English
9 j% i9 N+ W5 o: S3 w. f/ ^Default                                  : Yes
% p# C8 D, `% I. R8 i) u$ HForced                                   : No* H; K1 b$ m+ C

$ L) T' f; e% }1 \

) b6 m0 k# V9 dText #1
1 |, W/ j+ @% _( X2 w1 O( M- NID                                       : 3
8 Q. d. k7 D1 Z+ j- F. XFormat                                   : PGS
  H6 h( B4 K" ~; V5 r+ PMuxing mode                              : zlib
- k2 K3 @- Y( U6 s" O6 t) ?Codec ID                                 : S_HDMV/PGS+ v. _3 |" L/ o. M2 a7 J
Codec ID/Info                            : Picture based subtitle format used on BDs/HD-DVDs/ n0 e7 [5 w. g8 Q+ y
Duration                                 : 1 h 20 min  I! B6 R# l5 ?
Bit rate                                 : 40.3 kb/s1 h* {5 X) V1 u& u' P
Count of elements                        : 1312
! Z- i& ?1 W6 q& B9 W% R; g8 cStream size                              : 23.3 MiB (0%), }+ u- M; X  R3 F0 b; ^$ E
Language                                 : German% }6 Q5 p) {) m9 O' @4 x9 }
Default                                  : No
' w# J" n* L, t+ N( FForced                                   : No
& {6 x, b! ]7 e: `
4 ?7 w* G* I' S. a3 J% K
: y& y, m1 \$ i. D" X  N# M
Text #25 \1 O4 e6 R6 J1 a
ID                                       : 4
* L+ E* g5 t: f3 P7 F6 fFormat                                   : PGS
: H" F" E) d' b/ oMuxing mode                              : zlib) {; h# V: [: q: _+ S3 S
Codec ID                                 : S_HDMV/PGS
* b2 g1 c+ a0 f' ACodec ID/Info                            : Picture based subtitle format used on BDs/HD-DVDs
. Y- w/ p5 R" e6 E1 O5 Z5 m, bDuration                                 : 37 min 23 s% m" Y$ ~' }: |- Y, Y. t1 v
Bit rate                                 : 275 b/s9 p& y- Q; U- O8 Q- i' h0 x) b, d
Count of elements                        : 6
. U8 {- K6 [/ q; c+ pStream size                              : 75.6 KiB (0%)
% A. f. J1 G7 bLanguage                                 : German
& w- i/ G% [! s* F: |2 |5 mDefault                                  : No& ?- ^" |$ ?) P
Forced                                   : No  {/ L2 Y0 Q2 Z* h5 g
1 U/ F. k' Z4 v$ _1 g
- F" s5 O5 M) S
Menu& G% j: U6 H, b5 A( G
00:00:00.000                             : en:Chapter 01
. M4 u8 @2 D- i00:06:33.393                             : en:Chapter 02& j; s/ s  B5 Z8 O$ C6 I; g$ g& G
00:14:20.193                             : en:Chapter 03
1 [. X+ c1 {% X4 c" \" a00:21:49.517                             : en:Chapter 04% L) c' j$ a1 ^
00:25:16.682                             : en:Chapter 05
: e7 J* Q; \7 p" m00:36:11.002                             : en:Chapter 069 M  W% I! a# Z4 a9 S3 m0 M# j
00:41:39.789                             : en:Chapter 07
. k  [) p( m8 V; \- U+ W1 Y! F- }00:49:29.717                             : en:Chapter 087 Z. [* _, q/ U8 s5 Q
00:56:07.823                             : en:Chapter 09
6 z! d5 I- H: x01:03:50.368                             : en:Chapter 10
3 |2 M0 U" H1 Q3 b0 u, l. L9 X# q01:09:05.475                             : en:Chapter 11
. o( s- c3 F# ^. W01:16:18.783                             : en:Chapter 123 \  ?# c8 p1 B
01:23:42.517                             : en:Chapter 13
5 g, a6 ?4 M0 s# z, Y

4 K' l$ h/ R# F8 ?& }. c1 L$ ~4 J+ f4 W: d. C
1 B7 y6 n/ {5 Q7 N

奇妙的海洋 Wonders.of.the.Sea.2017.3D.1080p.BluRay.x264-JustWatch 7.93GB

奇妙的海洋 Wonders.of.the.Sea.2017.3D.1080p.BluRay.x264-JustWatch 7.93GB

. i0 J+ H& n$ Y& T" h
- z# b7 r* m1 ^' T3 Z$ l( b+ u! m5 {5 C- C
蓝光高清网提示您 点击下方附件名称 即可开始下载; F8 {3 U9 s% ^

4 B. \, }' |. j" o8 G0 A8 l( z  w奇妙的海洋 Wonders.of.the.Sea.2017.3D.1080p.BluRay.x264-JustWatch 7.93GB. v" b$ @' K; E. G! _

Wonders.of.the.Sea.2017.3D.1080p.BluRay.x264-JustWatch.torrent ( 20.58 KB )

6 W0 [% @. `2 `7 `  t
评分记录活跃度 高清币 收起 理由
cfc0316 + 9 + 3
总评分: 活跃度 + 9  高清币 + 3 
加入蓝光高清网VIP会员  无限制下载本站所有资源---点这里

资源下载、资源播放、字幕使用、无法下载等常见问题---点这里
回复

使用道具 举报

全部回复14 显示全部楼层
原动力手机认证 发表于 2022-2-28 22:14:05 | 显示全部楼层
很好!很好看的一部大片
回复 支持 反对

使用道具 举报

原动力手机认证 发表于 2022-2-28 22:18:25 | 显示全部楼层
好看。。。。。。施瓦辛格的大片
回复 支持 反对

使用道具 举报

原动力手机认证 发表于 2022-2-28 22:21:26 | 显示全部楼层
。。。。。。。。。。。。。
回复

使用道具 举报

唐泉水 发表于 2022-4-9 23:00:29 来自手机 | 显示全部楼层
谢谢您可以直接联系
回复 支持 反对

使用道具 举报

4kproiui4qfQV手机认证 发表于 2022-4-9 23:11:51 | 显示全部楼层
版主大爱无疆。
回复 支持 反对

使用道具 举报

4kproiui4qfQV手机认证 发表于 2022-4-13 18:52:48 | 显示全部楼层

. J! V) v$ G6 L" ]+ C0 I7 k版主大爱无疆
回复 支持 反对

使用道具 举报

iata手机认证 发表于 2022-4-20 17:13:39 | 显示全部楼层
我乡下咋子看看
回复 支持 反对

使用道具 举报

pisi手机认证 发表于 2022-5-1 16:00:08 | 显示全部楼层
不让下载  你让我注册个jb啊
回复 支持 反对

使用道具 举报

yidi159 发表于 2022-5-5 17:50:57 | 显示全部楼层
很好看的一部大片,期待很久了
回复 支持 反对

使用道具 举报

发表回复

您需要登录后才可以回帖 登录 | 立即注册

本版积分规则

开通会员 帮助中心 返回顶部 返回列表