蓝光高清网

搜索
开启左侧

奇妙的海洋 Wonders.of.the.Sea.2017.3D.1080p.BluRay.x264-JustWatch 7.93GB

 
蓝鸟 发表于 2022-2-20 15:02:54 | 显示全部楼层 |阅读模式
奇妙的海洋 豆瓣评分: 8.2分
片长: 82分钟 ( 2017年上映)
类型:记录 
导演:Jean-Michel Cousteau / 让-贾克·曼德罗
主演:阿诺·施瓦辛格 / Jean-Michel Cousteau / Fabien Cousteau / Celine Cousteau
3 D 格式:hsbs 

封装音轨:Dolby TrueHD 5.1 
简       介
. |$ H; p5 P* E; ^/ W3 B# h3 {  J1 ]. l: d
  凭借尖端的 3D 技术,法国海洋探险家让-米歇尔·库斯托和他的成年子女探索海洋,了解是什么让海洋处于危险之中。" \4 u& T* h7 T& V$ t6 n* l

! t7 B2 m' @8 Z# [' f0 B. M
& _* o2 D( C: Q: v# ^9 u
影片参数
/ @1 h% D' z+ G
Video
  [! l' j: x  l2 Y7 C  v8 nID                                       : 1/ w9 t! g( W2 r3 H' m  J# c: H4 E0 G
Format                                   : AVC
6 U  N# i4 B( RFormat/Info                              : Advanced Video Codec
% q/ ^5 v: B8 X6 S5 U* {  r8 l8 EFormat profile                           : [email protected]. q2 s' ~3 ~4 Y2 E
Format settings                          : CABAC / 5 Ref Frames6 M" h9 K. O$ d
Format settings, CABAC                   : Yes
( }9 [* d3 g7 S4 V* m( P( l8 D' K/ l$ fFormat settings, Reference frames        : 5 frames
& u. H- H8 _1 O& u  j* E- ZCodec ID                                 : V_MPEG4/ISO/AVC
+ d: i1 n- y. c) ^6 LDuration                                 : 1 h 23 min9 N! ~$ o) C, K3 N4 e& ~1 S
Bit rate                                 : 11.5 Mb/s% K% S1 C$ m' b* Q; T8 |- M
Width                                    : 1 920 pixels) [* X+ ]1 O" X+ l
Height                                   : 804 pixels1 t5 W! |, Z8 n6 }, r. q- t  b
Display aspect ratio                     : 2.40:1
  ?/ B& J4 S5 X( `  Z" n0 W5 N' jFrame rate mode                          : Constant# c# p/ K$ s0 ~% }. ]1 g
Frame rate                               : 23.976 FPS; |% g% I6 V5 V1 Z+ Y& b
Color space                              : YUV$ m8 P3 F, S( T! k7 I2 @& O
Chroma subsampling                       : 4:2:0
: N/ S7 D/ M) J: t! _% m! ABit depth                                : 8 bits
2 p7 Z5 r! T! i- Y, k. H! [Scan type                                : Progressive
8 G% J6 e. n1 A4 N8 c5 X/ u0 x7 `) QBits/(Pixel*Frame)                       : 0.312
; y; y5 T# i( EStream size                              : 6.76 GiB (85%)  u+ e7 g5 G7 I- d
Writing library                          : x264 core 164 r3081 19856cc9 `! w: n" B, e9 h7 H" ~
Encoding settings                        : cabac=1 / ref=5 / deblock=1:-3:-3 / analyse=0x3:0x133 / me=umh / subme=8 / psy=1 / psy_rd=1.00:0.15 / mixed_ref=1 / me_range=16 / chroma_me=1 / trellis=2 / 8x8dct=1 / cqm=0 / deadzone=21,11 / fast_pskip=0 / chroma_qp_offset=-3 / threads=24 / lookahead_threads=4 / sliced_threads=0 / nr=0 / decimate=1 / interlaced=0 / bluray_compat=0 / constrained_intra=0 / bframes=3 / b_pyramid=2 / b_adapt=1 / b_bias=0 / direct=3 / weightb=1 / open_gop=0 / weightp=2 / keyint=250 / keyint_min=23 / scenecut=40 / intra_refresh=0 / rc_lookahead=50 / rc=crf / mbtree=1 / crf=20.0 / qcomp=0.60 / qpmin=0 / qpmax=69 / qpstep=4 / ip_ratio=1.40 / aq=1:1.00: r/ U5 Q! P  K' h* K+ ]. h3 t, o, @
Language                                 : English
# N7 N' x9 t8 o% k* ADefault                                  : Yes( g" B, \. N7 g' h" c
Forced                                   : No3 p* M: H4 Q, R& U. \1 ^6 d0 p
8 J( |8 X% }* I% Y+ l8 k5 I# I

' `/ }& b& L3 p; CAudio4 m% ~/ _6 _$ W, j
ID                                       : 2
$ V, ~0 b# Y* E  S' [& ^* CFormat                                   : DTS XLL
% `/ c4 K1 `( O! N, e% jFormat/Info                              : Digital Theater Systems
9 g+ g$ K0 \$ ^+ w9 {" CCommercial name                          : DTS-HD Master Audio
* r+ X0 B$ t' X3 uCodec ID                                 : A_DTS
3 r0 Z8 a$ f5 E) o0 G! KDuration                                 : 1 h 23 min
3 [& Z% m3 I' P  m8 y, bBit rate mode                            : Variable
5 G& S' k3 z4 o2 jBit rate                                 : 1 978 kb/s
! c# L3 M1 o1 l2 J* P+ jChannel(s)                               : 6 channels
, K) P& D# C8 s0 }8 c0 {Channel layout                           : C L R Ls Rs LFE
" W7 f" a" Z, n% s; Q" s# Y: i+ eSampling rate                            : 48.0 kHz1 q9 V5 _$ P5 i" q
Frame rate                               : 93.750 FPS (512 SPF)
* e8 f6 U2 o( ^) k. Y  V" X! \Bit depth                                : 16 bits
/ d; i& \: ?0 MCompression mode                         : Lossless4 D1 _% D0 T& g1 C
Stream size                              : 1.16 GiB (15%)8 m/ T0 `/ C% O0 s
Language                                 : English
: `% o+ x2 n& q# K3 ?# ^$ HDefault                                  : Yes
* Z+ `% ?+ r# K- e8 vForced                                   : No
) O7 B0 S! o$ J( \1 F# J$ u" J: m) ~7 h

" u# k* K: ?& @4 |# O, VText #10 F- N1 J3 b& N# D& B, o6 k
ID                                       : 3$ M- m3 u: j5 Z" z
Format                                   : PGS7 S( t1 {# p( O& j; Q3 T& d
Muxing mode                              : zlib4 q7 I! Q5 K3 w% c9 Y* e& A! L& G
Codec ID                                 : S_HDMV/PGS
: Y  J; z2 h7 i& ^" N' @( n) dCodec ID/Info                            : Picture based subtitle format used on BDs/HD-DVDs
8 |: u  X5 `, R. n/ S0 `2 g7 d, W0 ?Duration                                 : 1 h 20 min4 s+ @. W" \5 N" O; ?" _5 |
Bit rate                                 : 40.3 kb/s1 k# A+ c% o" J, ^4 S/ I6 A
Count of elements                        : 1312+ I" u& `, L( Y* ]; ?) E
Stream size                              : 23.3 MiB (0%)8 p5 c+ t" O. u/ u% M: ]
Language                                 : German: K* d5 m# L) x
Default                                  : No
6 u$ c4 a4 v, c' @8 [7 CForced                                   : No7 M4 g6 C5 D8 u( e3 R. z

- u* a, S* J$ w) @2 j
- ^5 t" w9 b/ O8 V% E7 d0 M
Text #2$ V0 u0 K1 \1 }8 D$ @
ID                                       : 4
$ W1 h$ Z( c0 tFormat                                   : PGS
& ?7 v. z  V9 I( NMuxing mode                              : zlib% Y- y! U# @* _; ]- y; s
Codec ID                                 : S_HDMV/PGS1 b! s* ?6 {$ n1 T. S4 x. `
Codec ID/Info                            : Picture based subtitle format used on BDs/HD-DVDs1 Z% L3 ]( Q* X' ?+ t* W$ j; U
Duration                                 : 37 min 23 s( t3 r7 }$ x% p+ L2 D
Bit rate                                 : 275 b/s
) |9 z& H- Z" K+ XCount of elements                        : 6
; Q0 X/ i: y5 H! gStream size                              : 75.6 KiB (0%)  P# R/ ?8 a+ l6 E! |+ o  v
Language                                 : German
9 l  e; a8 Y/ m- T! K; n* Y. qDefault                                  : No
! J- G  E% Q# J" p+ mForced                                   : No
3 l3 e3 u8 W# w! V6 ]* g7 [; k
0 M0 Q# L2 e" A& N9 p
! R8 `& N; N' F0 C
Menu+ v4 D/ E" J8 F( I1 t7 N& B
00:00:00.000                             : en:Chapter 01/ ?# l' Q& x$ ]+ ?# r
00:06:33.393                             : en:Chapter 021 t* p' A9 e8 U
00:14:20.193                             : en:Chapter 03
$ e; \4 K& K$ O4 R00:21:49.517                             : en:Chapter 04
1 f2 S& n# W% h. R00:25:16.682                             : en:Chapter 059 J8 ^; _" {$ s4 H& d9 t; ?
00:36:11.002                             : en:Chapter 06
6 ?+ b& |6 |1 _+ Z6 f. W. d00:41:39.789                             : en:Chapter 077 K  G* E9 `1 R* s. y. r! I, p
00:49:29.717                             : en:Chapter 08  d2 W5 e# P6 L% B
00:56:07.823                             : en:Chapter 09
- }0 B& e/ R6 \) }. O9 I01:03:50.368                             : en:Chapter 10
4 a4 |' X& H- A01:09:05.475                             : en:Chapter 11& {3 H2 y; v( G. j! E0 C! M4 J1 O
01:16:18.783                             : en:Chapter 129 ^1 f$ O, }. z6 G) r- ~) Y0 G0 _
01:23:42.517                             : en:Chapter 13
: A1 y7 q9 @' ^* a$ L. U$ ?

2 v) J9 Y2 B. N1 L, ~1 j: Q' ^
7 w& J  G0 W( F% u4 h
* Y5 h. o4 ]- B1 z4 o* h

奇妙的海洋 Wonders.of.the.Sea.2017.3D.1080p.BluRay.x264-JustWatch 7.93GB

奇妙的海洋 Wonders.of.the.Sea.2017.3D.1080p.BluRay.x264-JustWatch 7.93GB

9 V. z- s9 {% h9 _# t0 S# I
2 y( O) E( \, ^  h, D) `6 |" N* ~
蓝光高清网提示您 点击下方附件名称 即可开始下载- e7 V$ T$ \* X9 {0 J$ m
* e7 k5 C- K/ i: V
奇妙的海洋 Wonders.of.the.Sea.2017.3D.1080p.BluRay.x264-JustWatch 7.93GB
" L8 g& T8 W$ B/ K

Wonders.of.the.Sea.2017.3D.1080p.BluRay.x264-JustWatch.torrent ( 20.58 KB )

8 |. e1 {+ ]0 H$ y- q/ _$ Z* m( w
加入蓝光高清网VIP会员  无限制下载本站所有资源---点这里

资源下载、资源播放、字幕使用、无法下载等常见问题---点这里
回复

使用道具 举报

全部回复10 显示全部楼层
原动力手机认证 发表于 2022-2-28 22:14:05 | 显示全部楼层
很好!很好看的一部大片
回复 支持 反对

使用道具 举报

原动力手机认证 发表于 2022-2-28 22:18:25 | 显示全部楼层
好看。。。。。。施瓦辛格的大片
回复 支持 反对

使用道具 举报

原动力手机认证 发表于 2022-2-28 22:21:26 | 显示全部楼层
。。。。。。。。。。。。。
回复

使用道具 举报

唐泉水 发表于 2022-4-9 23:00:29 来自手机 | 显示全部楼层
谢谢您可以直接联系
回复 支持 反对

使用道具 举报

4kproiui4qfQV手机认证 发表于 2022-4-9 23:11:51 | 显示全部楼层
版主大爱无疆。
回复 支持 反对

使用道具 举报

4kproiui4qfQV手机认证 发表于 2022-4-13 18:52:48 | 显示全部楼层
% I0 x. W6 d* r7 Z% o
版主大爱无疆
回复 支持 反对

使用道具 举报

iata手机认证 发表于 2022-4-20 17:13:39 | 显示全部楼层
我乡下咋子看看
回复 支持 反对

使用道具 举报

pisi手机认证 发表于 2022-5-1 16:00:08 | 显示全部楼层
不让下载  你让我注册个jb啊
回复 支持 反对

使用道具 举报

yidi159 发表于 2022-5-5 17:50:57 | 显示全部楼层
很好看的一部大片,期待很久了
回复 支持 反对

使用道具 举报

发表回复

您需要登录后才可以回帖 登录 | 立即注册

本版积分规则

联系客服 关注微信 下载APP 返回顶部 返回列表