蓝光高清网

搜索
开启左侧

光环 Halo.S01E01.2160p.WEB-DL.DDP5.1.Atmos.DV.MP4.x265-DVSUX 4k美剧下载

 
小山雀 发表于 2022-3-26 10:09:02 | 显示全部楼层 |阅读模式
光环 豆瓣评分: 7.2分

状态:第一季(更新至第8集 共9集)
上映时间:2022-03-24
类型:动作 科幻 战争 
地区:美国
导演:乔纳森·里贝斯曼 / 奥图·巴瑟赫斯特 / 罗伊·雷内 / 杰特·威尔金森
主演:巴勃罗·施瑞博尔 / 娜塔莎·麦克艾霍恩 / 叶林·韩 / 博基姆·伍德拜因 / 简·泰勒
画质标准:4K(3840x2160) 封装音轨:5.1声道 音轨编码:其他DD
剧情简介
  游戏改编剧《光环 Halo》确定由Showtime预定10集首季,Otto Bathurst负责执导部份集,此剧于定于2021年播出。
  本项目由13年开始启动,但期间动作不多,在14年XBox En ertainment Studios闭门后转交给Showtime开发,历时4年终于成功发展成正剧。《光晕》系列讲述了26世纪时,人类与外星种族之间的史诗级宇宙战争。
  在《美国众神 American Gods》有演出的Pablo Schreiber饰演核心人物士官长/ Master Chief,他是人类阻止外星大军「星盟」毁灭文化的唯一希望。新晋演员Yerin Ha饰演16岁的Quan Ah,精明﹑胆大的她在殖民星的关键时刻遇上士官长。
  Natascha McElhone会饰演两个角色,第一个是Catherine Halsey博士,她创造了超级士兵 - 斯巴达战士,同时她会饰演人造智能Cortana,它可能是人类能否生存下去的关键。Bokeem Woodbine饰演Soren-066,他是个道德观复杂的私掠船船长,即将与在军中时的军士长兼前好友 - 士官长有所冲突。Shabana Azmi饰演Margaret Parangosky上将,美国海军情报局的领导。
  Bentley Kalu饰演斯巴达战士Vannak-134,有强化神经机器的他是个童年时期就被征召的超级士兵,士官长的副手﹑Natasha Culzac饰演斯巴达战士Riz-028,她是个专注﹑专业的士兵,犹如杀戮机器一般﹑Kate Kennedy饰演有胆识﹑好奇心重的斯巴达战士新人Kai-125....
本帖最后由 蓝鸟 于 2022-5-13 10:53 编辑

影片参数
Video
ID                             : 1
Format                         : HEVC
Format/Info                    : High Efficiency Video Coding
Format profile                 : Main 10@L5@High
HDR format                     : Dolby Vision, Version 1.0, dvhe.05.06, BL+RPU
Codec ID                       : dvhe
Codec ID/Info                  : High Efficiency Video Coding with Dolby Vision
Duration                       : 58 min 56 s
Bit rate                       : 13.9 Mb/s
Width                          : 3 840 pixels
Height                         : 2 160 pixels
Display aspect ratio           : 16:9
Frame rate mode                : Constant
Frame rate                     : 23.976 (24000/1001) FPS
Color space                    : YUV
Chroma subsampling             : 4:2:0 (Type 0)
Bit depth                      : 10 bits
Bits/(Pixel*Frame)             : 0.070
Stream size                    : 5.73 GiB (95%)
Default                        : Yes
Alternate group                : 1
Encoded date                   : UTC 2022-03-24 09:07:30
Tagged date                    : UTC 2022-03-24 09:08:14
Color range                    : Full
Codec configuration box        : hvcC+dvcC


Audio
ID                             : 2
Format                         : E-AC-3 JOC
Format/Info                    : Enhanced AC-3 with Joint Object Coding
Commercial name                : Dolby Digital Plus with Dolby Atmos
Codec ID                       : ec-3
Duration                       : 58 min 56 s
Bit rate mode                  : Constant
Bit rate                       : 768 kb/s
Maximum bit rate               : 811 kb/s
Channel(s)                     : 6 channels
Channel layout                 : L R C LFE Ls Rs
Sampling rate                  : 48.0 kHz
Frame rate                     : 31.250 FPS (1536 SPF)
Compression mode               : Lossy
Stream size                    : 324 MiB (5%)
Title                          : English
Language                       : English
Service kind                   : Complete Main
Default                        : Yes
Alternate group                : 1
Tagged date                    : UTC 2022-03-24 09:08:14
Complexity index               : Not present / 16
Number of dynamic objects      : 15
Bed channel count              : 1 channel
Bed channel configuration      : LFE


Text
ID                             : 3
Format                         : Timed Text
Codec ID                       : tx3g
Duration                       : 57 min 0 s
Bit rate mode                  : Variable
Bit rate                       : 58 b/s
Stream size                    : 24.1 KiB (0%)
Title                          : English
Language                       : English
Forced                         : No
Encoded date                   : UTC 2022-03-24 09:08:14
Tagged date                    : UTC 2022-03-24 09:08:14

蓝光高清网提示您 点击下方附件名称即可开始下载

多版本下载时请注意区分

光环 Halo.S01E01.2160p.WEB-DL.DDP5.1.Atmos.DV.MP4.x265-DVSUX 4k美剧下载

光环 Halo.S01E01

Halo.S01E01.2160p.WEB-DL.DDP5.1.Atmos.DV.MP4.x265-DVSUX[rartv].torrent ( 36.66 KB )


Halo.S01E01.HDR.2160p.WEB.H265-GGEZ.torrent ( 15.62 KB )


第一集字幕Halo.S01E01.2160p.WEB-DL.DDP5.1.Atmos.DV.MP4.x265.zip ( 45.47 KB )



光环 Halo.S01E02

Halo.S01E02.HDR.2160p.WEB.H265-GGEZ.torrent ( 14.21 KB )


Halo.S01E02.2160p.WEB-DL.DDP5.1.Atmos.DV.MP4.x265-DVSUX.torrent ( 14.36 KB )


第二集字幕.zip ( 45.83 KB )



光环 Halo.S01E03

Halo.S01E03.HDR.2160p.WEB.H265-GGEZ[rartv].torrent ( 14.39 KB )


Halo.S01E03.2160p.WEB-DL.DDP5.1.Atmos.DV.MP4.x265-DVSUX[rartv].torrent ( 14.58 KB )


第三集字幕.zip ( 202.97 KB )



光环 Halo.S01E04

光环 第一季4k.Halo.S01E04.2160p.WEB-DL.DDP5.1.Atmos.DV.MKV.x265-GGEZ.torrent ( 14.6 KB )


光环 第一季4k.Halo.S01E04.2160p.WEB-DL.DDP5.1.Atmos.DV.MP4.x265-DVSUX.torrent ( 14.56 KB )


光环 第一季4k.Halo.S01E04.HDR.2160p.WEB.H265-GGEZ.torrent ( 14.35 KB )


第4集字幕.zip ( 48.84 KB )



光环 Halo.S01E05

Halo.S01E05.HDR.2160p.WEB.H265-GGEZ[rartv]-[rarbg.to].torrent ( 20.6 KB )


第5集中文字幕.zip ( 31.96 KB )



光环 Halo.S01E06

Halo.S01E06.HDR.2160p.WEB.H265-GLHF.torrent ( 25.29 KB )


第六集中文字幕.ass ( 92.02 KB )



光环 Halo.S01E07

Halo.S01E07.HDR.2160p.WEB.H265-GLHF.torrent ( 13.82 KB )


第7集字幕.ass ( 85.62 KB )



光环 Halo.S01E08

Halo.S01E08.HDR.2160p.WEB.H265-GGEZ.torrent ( 25.01 KB )


Halo.S01E08.2160p.WEB-DL.DDP5.1.Atmos.DV.MP4.x265-DVSUX.torrent ( 25.38 KB )


Halo.S01E08.2160p.WEB-DL.DDP5.1.Atmos.DV.MKV.x265-GGEZ.torrent ( 25.43 KB )


第8集字幕.ass ( 77.89 KB )


回复

使用道具 举报

全部回复7 显示全部楼层
gdlmxia 发表于 2022-3-31 15:31:44 | 显示全部楼层
太好啦&萬分感謝版主的無私發佈分享%
回复 支持 反对

使用道具 举报

dongshouba手机认证 发表于 2022-4-8 00:54:09 | 显示全部楼层
感谢分享
回复

使用道具 举报

lstvlh0106手机认证 发表于 2022-4-10 19:40:31 | 显示全部楼层
感谢分享
回复

使用道具 举报

4kpro6tUb2N2M手机认证 发表于 2022-4-14 23:10:23 | 显示全部楼层
有宽屏的吗
回复 支持 反对

使用道具 举报

林仔手机认证 发表于 2022-4-30 06:10:48 | 显示全部楼层
好看吗?谢谢分享
回复 支持 反对

使用道具 举报

wr9291手机认证 发表于 2022-5-8 11:47:51 | 显示全部楼层

感谢分享
回复

使用道具 举报

ggang1 发表于 2022-5-11 14:15:23 | 显示全部楼层
谢楼主分享
回复 支持 反对

使用道具 举报

发表回复

您需要登录后才可以回帖 登录 | 立即注册

本版积分规则

联系客服 关注微信 下载APP 返回顶部 返回列表