蓝光高清网

搜索
开启左侧

[BBC纪录片] 牛/奶牛4k.Cow.2021.2160p.WEB-DL.x265.10bit.SDR.DDP5.1纪录片电影下载-8.51 GB

蓝鸟 发表于 2022-4-9 17:38:45 | 显示全部楼层 |阅读模式
简       介

  纪录片聚焦英国农场里的奶牛们。以低视角追踪英国农场中一头母牛的日常,观察它如何在人类的干预下吃草、交配、怀孕、生育以及产奶。当刚出生的小奶牛数次被带离母牛身边,它开始了抵抗……
  这部电影是重新看待“牛”的一个尝试。影片并不是以浪漫化的方式,而是用现实的目光带领我们接近它们,去欣赏它们的美丽和生命的挑战。这是一部讲述一头奶牛的现实和它对人类的奉献的电影。



影片参数
牛/奶牛4k.Cow.2021.2160p.WEB-DL.x265.10bit.SDR.DDP5.1纪录片电影信息
Video
ID : 1
Format : HEVC
Format/Info : High Efficiency Video Coding
Format profile : Main 10@L5@High
Codec ID : V_MPEGH/ISO/HEVC
Duration : 1 h 37 min
Bit rate : 11.8 Mb/s
Width : 3 832 pixels
Height : 2 022 pixels
Display aspect ratio : 1.895
Frame rate mode : Constant
Frame rate : 23.976 FPS
Color space : YUV
Chroma subsampling : 4:2:0
Bit depth : 10 bits
Bits/(Pixel*Frame) : 0.064
Stream size : 8.07 GiB (95%)
Language : English
Default : Yes
Forced : No
Color range : Limited
Color primaries : BT.709
Transfer characteristics : BT.709
Matrix coefficients : BT.709


Audio
ID : 2
Format : E-AC-3
Format/Info : Enhanced AC-3
Commercial name : Dolby Digital Plus
Codec ID : A_EAC3
Duration : 1 h 37 min
Bit rate mode : Constant
Bit rate : 640 kb/s
Channel(s) : 6 channels
Channel layout : L R C LFE Ls Rs
Sampling rate : 48.0 kHz
Frame rate : 31.250 FPS (1536 SPF)
Compression mode : Lossy
Stream size : 448 MiB (5%)
Language : English
Service kind : Complete Main
Default : No
Forced : No


Text #1
ID : 3
Format : UTF-8
Codec ID : S_TEXT/UTF8
Codec ID/Info : UTF-8 Plain Text
Duration : 1 h 37 min
Bit rate : 44 b/s
Count of elements : 958
Stream size : 32.0 KiB (0%)
Title : English
Language : English
Default : Yes
Forced : No


Text #2
ID : 4
Format : UTF-8
Codec ID : S_TEXT/UTF8
Codec ID/Info : UTF-8 Plain Text
Duration : 1 h 37 min
Bit rate : 44 b/s
Count of elements : 958
Stream size : 32.0 KiB (0%)
Title : English
Language : English
Default : No
Forced : No


蓝光高清网提示您 点击下方附件名称 即可开始下载


牛/奶牛4k.Cow.2021.2160p.WEB-DL.x265.10bit.SDR.DDP5.1纪录片电影下载

奶牛4k.Cow.2021.2160p.WEB-DL.x265.10bit.SDR.DDP5.1【4k SDR  8.51 GB】


奶牛中文字幕下载



来源: 牛/奶牛4k.Cow.2021.2160p.WEB-DL.x265.10bit.SDR.DDP5.1纪录片电影下载-8.51 GB
加入蓝光高清网VIP会员  无限制下载本站所有资源---点这里

资源下载、资源播放、字幕使用、无法下载等常见问题---点这里
回复

使用道具 举报

全部回复0 显示全部楼层

发表回复

您需要登录后才可以回帖 登录 | 立即注册

本版积分规则

联系客服 关注微信 下载APP 返回顶部 返回列表