蓝光高清网

搜索
开启左侧

[历史纪录片] 都铎王朝的私生活 4k.The.Private.Lives.of.the.Tudors.S01.2160p.WEB-DL.AAC2.0.x264-4k美剧下载-24.49 GB

蓝鸟 发表于 2022-4-13 11:02:28 | 显示全部楼层 |阅读模式
影片参数
都铎王朝的私生活4k.The.Private.Lives.of.the.Tudors.S01.2160p.WEB-DL.AAC2.0.x264-4k电影信息
Video
ID : 1
Format : AVC
Format/Info : Advanced Video Codec
Format profile : High@L5.1
Format settings : CABAC / 5 Ref Frames
Format settings, CABAC : Yes
Format settings, Reference frames : 5 frames
Codec ID : V_MPEG4/ISO/AVC
Duration : 44 min 36 s
Bit rate : 26.3 Mb/s
Width : 3 840 pixels
Height : 2 160 pixels
Display aspect ratio : 16:9
Frame rate mode : Constant
Frame rate : 25.000 FPS
Color space : YUV
Chroma subsampling : 4:2:0
Bit depth : 8 bits
Scan type : Progressive
Bits/(Pixel*Frame) : 0.127
Stream size : 8.20 GiB (99%)
Default : Yes
Forced : No


Audio
ID : 2
Format : AAC LC
Format/Info : Advanced Audio Codec Low Complexity
Codec ID : A_AAC-2
Duration : 44 min 36 s
Bit rate : 253 kb/s
Channel(s) : 2 channels
Channel layout : L R
Sampling rate : 48.0 kHz
Frame rate : 46.875 FPS (1024 SPF)
Compression mode : Lossy
Stream size : 80.8 MiB (1%)
Language : English
Default : Yes
Forced : No


Text #1
ID : 3
Format : UTF-8
Codec ID : S_TEXT/UTF8
Codec ID/Info : UTF-8 Plain Text
Duration : 43 min 47 s
Bit rate : 98 b/s
Count of elements : 800
Stream size : 31.5 KiB (0%)
Language : English
Default : No
Forced : No


Text #2
ID : 4
Format : UTF-8
Codec ID : S_TEXT/UTF8
Codec ID/Info : UTF-8 Plain Text
Duration : 43 min 54 s
Bit rate : 102 b/s
Count of elements : 877
Stream size : 32.9 KiB (0%)
Title : SDH
Language : English
Default : No
Forced : No


蓝光高清网提示您 点击下方附件名称 即可开始下载


都铎王朝的私生活4k.The.Private.Lives.of.the.Tudors.S01.2160p.WEB-DL.AAC2.0.x264-4k电影下载

都铎王朝的私生活4k.The.Private.Lives.of.the.Tudors.S01.2160p.WEB-DL.AAC2.0.x264【24.49 GB】


来源: 都铎王朝的私生活 4k.The.Private.Lives.of.the.Tudors.S01.2160p.WEB-DL.AAC2.0.x264-4k美剧下载-24.49 GB
加入蓝光高清网VIP会员  无限制下载本站所有资源---点这里

资源下载、资源播放、字幕使用、无法下载等常见问题---点这里
回复

使用道具 举报

全部回复2 显示全部楼层
gdlmxia 发表于 2022-4-19 17:20:46 | 显示全部楼层
太好啦&萬分感謝版主的無私發佈分享%
回复 支持 反对

使用道具 举报

登高手机认证 发表于 7 天前 | 显示全部楼层

好资源,多谢分享!
回复 支持 反对

使用道具 举报

发表回复

您需要登录后才可以回帖 登录 | 立即注册

本版积分规则

联系客服 关注微信 下载APP 返回顶部 返回列表