本站已运行

蓝光高清网

搜索

[喜剧片] 白车惊魂 The.Ambulance.1990.1080p.BluRay.REMUX.AVC.LPCM.2.0-FGT 25.05GB

蓝鸟 发表于 2022-4-29 10:47:33 | 显示全部楼层 |阅读模式

白车惊魂 The.Ambulance.1990.1080p.BluRay.REMUX.AVC.LPCM.2.0-FGT 25.05GB

白车惊魂 The.Ambulance.1990.1080p.BluRay.REMUX.AVC.LPCM.2.0-FGT 25.05GB


译  名 白车惊魂 / 救护车
片  名 The Ambulance
年  代 1990
产  地 美国
类  别 喜剧 / 动作 / 爱情 / 惊悚 / 恐怖
语  言 英语
上映日期 1990-03-31
片  长 91 分钟
导  演 拉里·柯恩 Larry Cohen
编  剧 拉里·柯恩 Larry Cohen
演  员 Michael O''Hare Michael O''Hare
       凯文·哈根 Kevin Hagen
       黛博拉赫德瓦尔 Deborah Hedwall
       比阿特丽斯·温德 Beatrice Winde
       查理·萨拉 Charlie Sara
       唐娜·伊凡斯 Donna Evans
       拉里·哈马 Larry Hama
       Jordan Derwin Jordan Derwin
       丹尼尔查普曼 Daniel Chapman
       艾瑞克·布里登 Eric Braeden
       莱德·巴顿斯 Red Buttons
       梅根·加拉格尔 Megan Gallagher
       詹姆斯·厄尔·琼斯 James Earl Jones
       eter Sabiston Peter Sabiston
       劳伦妮·兰登 Laurene Landon
       简宁·特纳 Janine Turner
       尼克·齐兰德 Nick Chinlund
       吉因·科兰 Gene Colan
       苏珊·布洛马特 Susan Blommaert
       埃里克·罗伯茨 Eric Roberts
       理查德·布赖特 Richard Bright
       斯坦·李 Stan Lee
       罗伯特·卡茨 Robert Katz
       莫克泰苏马·埃斯帕尔扎 Moctesuma Esparza
       Jay Chattaway Jay Chattaway
       Armond Lebowitz Armond Lebowitz
       Nancy Deren Nancy Deren
       詹妮弗·阿斯皮纳尔 Jennifer Aspinall
       Timothy J. Lonsdale Timothy J. Lonsdale
       斯皮罗·拉扎托斯 Spiro Razatos
       凯伦·F·奥乔亚 Kaaren F. Ochoa
       Larry Arpin Larry Arpin

简  介

A comic-book artist meets a woman on the NY streets, but after a quick flirtation, she suddenly collapses, and is picked-up by an old ambulance. He checks all the hospitals in the area, but the woman seems to have disappeared.


影片参数
  1. Video
  2. ID                                       : 1
  3. Format                                   : AVC
  4. Format/Info                              : Advanced Video Codec
  5. Format profile                           : [email protected]
  6. Format settings                          : CABAC / 3 Ref Frames
  7. Format settings, CABAC                   : Yes
  8. Format settings, Reference frames        : 3 frames
  9. Codec ID                                 : V_MPEG4/ISO/AVC
  10. Duration                                 : 1 h 35 min
  11. Bit rate mode                            : Variable
  12. Bit rate                                 : 36.0 Mb/s
  13. Maximum bit rate                         : 37.0 Mb/s
  14. Width                                    : 1 920 pixels
  15. Height                                   : 1 080 pixels
  16. Display aspect ratio                     : 16:9
  17. Frame rate mode                          : Constant
  18. Frame rate                               : 23.976 (24000/1001/189150) FPS
  19. Standard                                 : NTSC
  20. Color space                              : YUV
  21. Chroma subsampling                       : 4:2:0
  22. Bit depth                                : 8 bits
  23. Scan type                                : Progressive
  24. Bits/(Pixel*Frame)                       : 0.724
  25. Stream size                              : 24.0 GiB (96%)
  26. Writing library                          : x264pro - Adobe CS Exporter Plug-in
  27. Encoding settings                        : cabac=1 / ref=4 / deblock=1:-2:-2 / analyse=0x3:0x113 / me=umh / subme=9 / psy=1 / psy_rd=1.00:0.25 / mixed_ref=1 / me_range=16 / chroma_me=1 / trellis=1 / 8x8dct=1 / cqm=0 / deadzone=6,6 / fast_pskip=1 / chroma_qp_offset=-4 / threads=16 / lookahead_threads=2 / sliced_threads=0 / slices=4 / nr=0 / decimate=0 / interlaced=0 / bluray_compat=1 / constrained_intra=0 / bframes=3 / b_pyramid=1 / b_adapt=2 / b_bias=0 / direct=3 / weightb=1 / open_gop=0 / weightp=1 / keyint=24 / keyint_min=1 / scenecut=40 / intra_refresh=0 / rc_lookahead=24 / rc=crf / mbtree=1 / crf=1.0 / qcomp=0.80 / qpmin=0 / qpmax=69 / qpstep=4 / vbv_maxrate=37000 / vbv_bufsize=30000 / crf_max=0.0 / nal_hrd=vbr / ip_ratio=1.10 / aq=1:0.50
  28. Language                                 : English
  29. Default                                  : No
  30. Forced                                   : No
  31. Color range                              : Limited
  32. Color primaries                          : BT.709
  33. Transfer characteristics                 : BT.709
  34. Matrix coefficients                      : BT.709
  35. Audio
  36. ID                                       : 2
  37. Format                                   : PCM
  38. Format settings                          : Little / Signed
  39. Codec ID                                 : A_PCM/INT/LIT
  40. Duration                                 : 1 h 35 min
  41. Bit rate mode                            : Constant
  42. Bit rate                                 : 1 536 kb/s
  43. Channel(s)                               : 2 channels
  44. Sampling rate                            : 48.0 kHz
  45. Frame rate                               : 30.000 FPS (1600 SPF)
  46. Bit depth                                : 16 bits
  47. Stream size                              : 1.03 GiB (4%)
  48. Title                                    : LCPM 2.0
  49. Language                                 : English
  50. Default                                  : Yes
  51. Forced                                   : No
  52. Text
  53. ID                                       : 3
  54. Format                                   : UTF-8
  55. Codec ID                                 : S_TEXT/UTF8
  56. Codec ID/Info                            : UTF-8 Plain Text
  57. Duration                                 : 1 h 31 min
  58. Bit rate                                 : 73 b/s
  59. Count of elements                        : 1142
  60. Stream size                              : 49.3 KiB (0%)
  61. Language                                 : English
  62. Default                                  : Yes
  63. Forced                                   : No
  64. Menu
  65. 00:00:00.000                             : en:Chapter 01
  66. 00:06:24.467                             : en:Chapter 02
  67. 00:10:28.669                             : en:Chapter 03
  68. 00:15:32.097                             : en:Chapter 04
  69. 00:21:25.784                             : en:Chapter 05
  70. 00:24:30.051                             : en:Chapter 06
  71. 00:32:42.085                             : en:Chapter 07
  72. 00:39:15.019                             : en:Chapter 08
  73. 00:48:00.961                             : en:Chapter 09
  74. 00:52:58.967                             : en:Chapter 10
  75. 00:58:03.104                             : en:Chapter 11
  76. 01:04:21.482                             : en:Chapter 12
  77. 01:10:55.334                             : en:Chapter 13
  78. 01:19:52.913                             : en:Chapter 14
  79. 01:27:25.531                             : en:Chapter 15
  80. 01:31:23.519                             : en:Chapter 16
复制代码



蓝光高清网提示您 点击下方附件即可下载

白车惊魂 The.Ambulance.1990.1080p.BluRay.REMUX.AVC.LPCM.2.0-FGT 25.05GB

The.Ambulance.1990.1080p.BluRay.REMUX.AVC.LPCM.2.0-FGT.torrent ( 31.95 KB )

加入蓝光高清网VIP会员  无限制下载本站所有资源---点这里

资源下载、资源播放、字幕使用、无法下载等常见问题---点这里
回复

使用道具 举报

全部回复0 显示全部楼层

发表回复

您需要登录后才可以回帖 登录 | 立即注册

本版积分规则

楼主

超级版主

热门推荐

开通会员 帮助中心 返回顶部 返回列表