本站已运行

蓝光高清网

搜索

[恐怖] 地狱血脉 Hellbender.Growing.Up.Is.Hell.2021.1080p.BluRay.x264-FREEMAN 6.79GB

蓝鸟 发表于 2022-4-29 10:48:24 | 显示全部楼层 |阅读模式

地狱血脉 Hellbender.Growing.Up.Is.Hell.2021.1080p.BluRay.x264-FREEMAN 6.79GB

地狱血脉 Hellbender.Growing.Up.Is.Hell.2021.1080p.BluRay.x264-FREEMAN 6.79GB


译  名 地狱血脉 / 地狱御巫
片  名 Hellbender
年  代 2021
产  地 美国
类  别 恐怖
语  言 英语
上映日期 2021-08-14(加拿大奇幻电影节) / 2022-02-24(美国)
豆瓣评分 5.5/10 (234人评价)
片  长 86分钟
导  演 托碧波塞尔 Toby Poser

简  介

A confused teenage girl is yearning to discover her family’s dark secret.


影片参数
  1. Video
  2. ID                                       : 1
  3. Format                                   : AVC
  4. Format/Info                              : Advanced Video Codec
  5. Format profile                           : [email protected]
  6. Format settings                          : CABAC / 4 Ref Frames
  7. Format settings, CABAC                   : Yes
  8. Format settings, Reference frames        : 4 frames
  9. Codec ID                                 : V_MPEG4/ISO/AVC
  10. Duration                                 : 1 h 22 min
  11. Bit rate                                 : 9 797 kb/s
  12. Width                                    : 1 920 pixels
  13. Height                                   : 1 012 pixels
  14. Display aspect ratio                     : 1.897
  15. Frame rate mode                          : Constant
  16. Frame rate                               : 23.976 (24000/1001/189150) FPS
  17. Color space                              : YUV
  18. Chroma subsampling                       : 4:2:0
  19. Bit depth                                : 8 bits
  20. Scan type                                : Progressive
  21. Bits/(Pixel*Frame)                       : 0.210
  22. Stream size                              : 5.66 GiB (83%)
  23. Writing library                          : x264 core 164 r3094 bfc87b7
  24. Encoding settings                        : cabac=1 / ref=4 / deblock=1:-3:-3 / analyse=0x3:0x133 / me=umh / subme=9 / psy=1 / psy_rd=1.00:0.00 / mixed_ref=1 / me_range=16 / chroma_me=1 / trellis=2 / 8x8dct=1 / cqm=0 / deadzone=21,11 / fast_pskip=0 / chroma_qp_offset=-2 / threads=24 / lookahead_threads=2 / sliced_threads=0 / nr=0 / decimate=1 / interlaced=0 / bluray_compat=0 / constrained_intra=0 / bframes=3 / b_pyramid=2 / b_adapt=2 / b_bias=0 / direct=3 / weightb=1 / open_gop=0 / weightp=2 / keyint=250 / keyint_min=23 / scenecut=40 / intra_refresh=0 / rc_lookahead=60 / rc=crf / mbtree=1 / crf=17.0 / qcomp=0.60 / qpmin=0 / qpmax=69 / qpstep=4 / ip_ratio=1.40 / aq=3:1.00
  25. Default                                  : Yes
  26. Forced                                   : No
  27. Color range                              : Limited
  28. Matrix coefficients                      : BT.709

  29. Audio
  30. ID                                       : 2
  31. Format                                   : DTS XLL
  32. Format/Info                              : Digital Theater Systems
  33. Commercial name                          : DTS-HD Master Audio
  34. Codec ID                                 : A_DTS
  35. Duration                                 : 1 h 22 min
  36. Bit rate mode                            : Variable
  37. Bit rate                                 : 1 959 kb/s
  38. Channel(s)                               : 6 channels
  39. Channel layout                           : C L R Ls Rs LFE
  40. Sampling rate                            : 48.0 kHz
  41. Frame rate                               : 93.750 FPS (512 SPF)
  42. Bit depth                                : 16 bits
  43. Compression mode                         : Lossless
  44. Stream size                              : 1.13 GiB (17%)
  45. Language                                 : English
  46. Default                                  : Yes
  47. Forced                                   : No

  48. Menu
  49. 00:00:00.000                             : en:00:00:00.000
  50. 00:06:22.340                             : en:00:06:22.340
  51. 00:23:13.559                             : en:00:23:13.559
  52. 00:41:44.627                             : en:00:41:44.627
  53. 00:56:00.816                             : en:00:56:00.816
  54. 01:10:24.512                             : en:01:10:24.512
复制代码

地狱血脉 Hellbender.Growing.Up.Is.Hell.2021.1080p.BluRay.x264-FREEMAN 6.79GB

地狱血脉 Hellbender.Growing.Up.Is.Hell.2021.1080p.BluRay.x264-FREEMAN 6.79GB



蓝光高清网提示您 点击下方附件即可下载

地狱血脉 Hellbender.Growing.Up.Is.Hell.2021.1080p.BluRay.x264-FREEMAN 6.79GB

Hellbender.Growing.Up.Is.Hell.2021.1080p.BluRay.x264-FREEMAN.torrent ( 17.69 KB )

加入蓝光高清网VIP会员  无限制下载本站所有资源---点这里

资源下载、资源播放、字幕使用、无法下载等常见问题---点这里
回复

使用道具 举报

全部回复1 显示全部楼层
awu7手机认证 发表于 2022-4-29 18:59:04 | 显示全部楼层
感谢分享,祝你一生平安:lol:lol
回复 支持 反对

使用道具 举报

发表回复

您需要登录后才可以回帖 登录 | 立即注册

本版积分规则

开通会员 帮助中心 返回顶部 返回列表