本站已运行

蓝光高清网

搜索
开启左侧

[剧情] 灵怪博士 Dr.Strange.1978.1080p.BluRay.x264.DTS-FGT 7.72GB

蓝鸟 发表于 2022-4-29 10:52:54 | 显示全部楼层 |阅读模式

灵怪博士 Dr.Strange.1978.1080p.BluRay.x264.DTS-FGT 7.72GB

灵怪博士 Dr.Strange.1978.1080p.BluRay.x264.DTS-FGT 7.72GB


译  名 灵怪博士 / 奇异博士(台)
片  名 Dr. Strange
年  代 1978
产  地 美国
类  别 剧情 / 奇幻 / 冒险 / 灾难
语  言 英语
上映日期 1978-09-06
片  长 93分钟
导  演 Philip DeGuere Philip DeGuere
编  剧 Philip DeGuere Philip DeGuere
       斯坦·李 Stan Lee
       史蒂夫·迪特寇 Steve Ditko
演  员 彼得·霍顿 Peter Hooten
       克莱德·草津 Clyde Kusatsu
       杰西卡·沃尔特 Jessica Walter
       菲利普·斯特林 Philip Sterling
       Lady Rowlands Lady Rowlands
       Sarah Rush Sarah Rush
       约翰·米尔斯 John Mills
       David Hooks David Hooks
       Bob Delegall Bob Delegall
       Larry Anderson Larry Anderson
       安妮-玛丽·马丁 Anne-Marie Martin
       泰德·卡西迪 Ted Cassidy
       迈克尔·安萨拉 Michael Ansara
       Philip DeGuere Philip DeGuere
       格里高利·霍布里特 Gregory Hoblit
       Paul Chihara Paul Chihara
       Enzo A. Martinelli Enzo A. Martinelli
       威廉·H·汤基 William H. Tuntke
       Yvonne Wood Yvonne Wood


影片参数
  1. Video
  2. ID                                       : 1
  3. Format                                   : AVC
  4. Format/Info                              : Advanced Video Codec
  5. Format profile                           : [email protected]
  6. Format settings                          : CABAC / 4 Ref Frames
  7. Format settings, CABAC                   : Yes
  8. Format settings, Reference frames        : 4 frames
  9. Codec ID                                 : V_MPEG4/ISO/AVC
  10. Duration                                 : 1 h 33 min
  11. Bit rate                                 : 11.5 Mb/s
  12. Width                                    : 1 436 pixels
  13. Height                                   : 1 080 pixels
  14. Display aspect ratio                     : 4:3
  15. Frame rate mode                          : Constant
  16. Frame rate                               : 23.976 (24000/1001/189150) FPS
  17. Color space                              : YUV
  18. Chroma subsampling                       : 4:2:0
  19. Bit depth                                : 8 bits
  20. Scan type                                : Progressive
  21. Bits/(Pixel*Frame)                       : 0.309
  22. Stream size                              : 7.55 GiB (98%)
  23. Writing library                          : x264 core 148 r2748 97eaef2
  24. Encoding settings                        : cabac=1 / ref=4 / deblock=1:-2:-2 / analyse=0x3:0x113 / me=umh / subme=9 / psy=1 / psy_rd=1.00:0.15 / mixed_ref=1 / me_range=16 / chroma_me=1 / trellis=2 / 8x8dct=1 / cqm=0 / deadzone=21,11 / fast_pskip=1 / chroma_qp_offset=-3 / threads=48 / lookahead_threads=3 / sliced_threads=0 / nr=0 / decimate=1 / interlaced=0 / bluray_compat=0 / constrained_intra=0 / bframes=3 / b_pyramid=2 / b_adapt=1 / b_bias=0 / direct=3 / weightb=1 / open_gop=0 / weightp=2 / keyint=250 / keyint_min=25 / scenecut=40 / intra_refresh=0 / rc_lookahead=50 / rc=2pass / mbtree=1 / bitrate=11500 / ratetol=1.0 / qcomp=0.60 / qpmin=0 / qpmax=69 / qpstep=4 / cplxblur=20.0 / qblur=0.5 / vbv_maxrate=31250 / vbv_bufsize=31250 / nal_hrd=none / filler=0 / ip_ratio=1.40 / aq=1:1.00
  25. Language                                 : English
  26. Default                                  : Yes
  27. Forced                                   : No
  28. Audio
  29. ID                                       : 2
  30. Format                                   : DTS
  31. Format/Info                              : Digital Theater Systems
  32. Codec ID                                 : A_DTS
  33. Duration                                 : 1 h 33 min
  34. Bit rate mode                            : Constant
  35. Bit rate                                 : 255 kb/s
  36. Channel(s)                               : 1 channel
  37. Channel layout                           : C
  38. Sampling rate                            : 48.0 kHz
  39. Frame rate                               : 93.750 FPS (512 SPF)
  40. Bit depth                                : 16 bits
  41. Compression mode                         : Lossy
  42. Stream size                              : 171 MiB (2%)
  43. Language                                 : English
  44. Default                                  : Yes
  45. Forced                                   : No
  46. Text #1
  47. ID                                       : 3
  48. Format                                   : UTF-8
  49. Codec ID                                 : S_TEXT/UTF8
  50. Codec ID/Info                            : UTF-8 Plain Text
  51. Duration                                 : 1 h 30 min
  52. Bit rate                                 : 46 b/s
  53. Count of elements                        : 1158
  54. Stream size                              : 31.2 KiB (0%)
  55. Language                                 : English
  56. Default                                  : Yes
  57. Forced                                   : No
  58. Text #2
  59. ID                                       : 4
  60. Format                                   : UTF-8
  61. Codec ID                                 : S_TEXT/UTF8
  62. Codec ID/Info                            : UTF-8 Plain Text
  63. Duration                                 : 1 h 32 min
  64. Bit rate                                 : 51 b/s
  65. Count of elements                        : 1320
  66. Stream size                              : 35.0 KiB (0%)
  67. Title                                    : SDH
  68. Language                                 : English
  69. Default                                  : No
  70. Forced                                   : No
  71. Menu
  72. 00:00:00.000                             : en:Evil Schemes
  73. 00:08:34.347                             : en:Morgan\''s Attack
  74. 00:16:13.222                             : en:Shared Nightmare
  75. 00:24:57.162                             : en:Institutionalized
  76. 00:32:08.552                             : en:Psychic Bond
  77. 00:41:12.303                             : en:Ignorance or Understanding?
  78. 00:52:00.951                             : en:Into the Astral Plane
  79. 01:00:59.823                             : en:The Choice Is Yours
  80. 01:06:55.803                             : en:Morgan vs. Wong
  81. 01:13:59.852                             : en:Temptation
  82. 01:21:36.141                             : en:More Than a Man
  83. 01:32:51.691                             : en:End Credits
复制代码

灵怪博士 Dr.Strange.1978.1080p.BluRay.x264.DTS-FGT 7.72GB

灵怪博士 Dr.Strange.1978.1080p.BluRay.x264.DTS-FGT 7.72GB



蓝光高清网提示您 点击下方附件即可下载

灵怪博士 Dr.Strange.1978.1080p.BluRay.x264.DTS-FGT 7.72GB

Dr.Strange.1978.1080p.BluRay.x264.DTS-FGT.torrent ( 19.89 KB )

加入蓝光高清网VIP会员  无限制下载本站所有资源---点这里

资源下载、资源播放、字幕使用、无法下载等常见问题---点这里
回复

使用道具 举报

全部回复1 显示全部楼层
awu7手机认证 发表于 2022-4-29 18:58:18 | 显示全部楼层
谢谢分享。谢谢分享
回复 支持 反对

使用道具 举报

发表回复

您需要登录后才可以回帖 登录 | 立即注册

本版积分规则