本站已运行

蓝光高清网

搜索

[动作] 毒品之街 The.Heroin.Busters.1977.1080p.BluRay.x264-ORBS 11.73GB

蓝鸟 发表于 2022-4-30 08:50:32 | 显示全部楼层 |阅读模式

毒品之街 The.Heroin.Busters.1977.1080p.BluRay.x264-ORBS 11.73GB

毒品之街 The.Heroin.Busters.1977.1080p.BluRay.x264-ORBS 11.73GB


译  名 毒品之街 / Drug Street / The Heroin Busters
片  名 La via della droga
年  代 1977
产  地 意大利
类  别 动作 / 惊悚 / 犯罪
语  言 意大利语
上映日期 1977
片  长 100分钟
导  演 恩佐·卡斯特拉里 Enzo G. Castellari
编  剧 马西莫·德·丽塔 Massimo De Rita
演  员 法比奥·泰斯蒂 Fabio Testi
       戴维·海明斯 David Hemmings
       谢丽·布坎南 Sherry Buchanan
       安东內拉·德拉·博尔塔 Antonella Della Porta
       迈克尔·福瑞斯特 Michael Forest
       Giovanni Cianfriglia Giovanni Cianfriglia
       塞尔瓦托雷·比拉 Salvatore Billa
       乔舒亚·辛克莱 Joshua Sinclair
       恩佐·卡斯特拉里 Enzo G. Castellari
       玛格丽特·霍洛维茨 Margherita Horowitz
       Claudio Simonetti Claudio Simonetti
       Goblin Goblin

简  介

An Italian policeman goes undercover to break up an international heroin smuggling ring and butts heads with a hot-tempered Interpol agent assigned by his agency to do the same task.


影片参数
  1. Video
  2. ID                                       : 1
  3. Format                                   : AVC
  4. Format/Info                              : Advanced Video Codec
  5. Format profile                           : [email protected]
  6. Format settings                          : CABAC / 4 Ref Frames
  7. Format settings, CABAC                   : Yes
  8. Format settings, Reference frames        : 4 frames
  9. Codec ID                                 : V_MPEG4/ISO/AVC
  10. Duration                                 : 1 h 33 min
  11. Bit rate                                 : 17.3 Mb/s
  12. Width                                    : 1 920 pixels
  13. Height                                   : 1 038 pixels
  14. Display aspect ratio                     : 1.85:1
  15. Frame rate mode                          : Constant
  16. Frame rate                               : 23.976 (24000/1001/189150) FPS
  17. Color space                              : YUV
  18. Chroma subsampling                       : 4:2:0
  19. Bit depth                                : 8 bits
  20. Scan type                                : Progressive
  21. Bits/(Pixel*Frame)                       : 0.361
  22. Stream size                              : 11.3 GiB (96%)
  23. Writing library                          : x264 core 164 r3094 bfc87b7
  24. Encoding settings                        : cabac=1 / ref=4 / deblock=1:-3:-3 / analyse=0x3:0x133 / me=umh / subme=10 / psy=1 / psy_rd=1.20:0.00 / mixed_ref=1 / me_range=24 / chroma_me=1 / trellis=2 / 8x8dct=1 / cqm=0 / deadzone=21,11 / fast_pskip=0 / chroma_qp_offset=-2 / threads=24 / lookahead_threads=4 / sliced_threads=0 / nr=0 / decimate=0 / interlaced=0 / bluray_compat=0 / constrained_intra=0 / bframes=8 / b_pyramid=2 / b_adapt=2 / b_bias=0 / direct=3 / weightb=1 / open_gop=0 / weightp=2 / keyint=250 / keyint_min=23 / scenecut=40 / intra_refresh=0 / rc_lookahead=60 / rc=crf / mbtree=1 / crf=22.5 / qcomp=0.60 / qpmin=0 / qpmax=69 / qpstep=4 / ip_ratio=1.40 / aq=3:0.90
  25. Default                                  : Yes
  26. Forced                                   : No
  27. Color range                              : Limited
  28. Matrix coefficients                      : BT.709

  29. Audio #1
  30. ID                                       : 2
  31. Format                                   : FLAC
  32. Format/Info                              : Free Lossless Audio Codec
  33. Codec ID                                 : A_FLAC
  34. Duration                                 : 1 h 33 min
  35. Bit rate mode                            : Variable
  36. Bit rate                                 : 274 kb/s
  37. Channel(s)                               : 1 channel
  38. Channel layout                           : C
  39. Sampling rate                            : 48.0 kHz
  40. Frame rate                               : 11.719 FPS (4096 SPF)
  41. Bit depth                                : 16 bits
  42. Compression mode                         : Lossless
  43. Stream size                              : 183 MiB (2%)
  44. Writing library                          : libFLAC 1.3.3 (UTC 2019-08-04)
  45. Language                                 : Italian
  46. Default                                  : Yes
  47. Forced                                   : No

  48. Audio #2
  49. ID                                       : 3
  50. Format                                   : FLAC
  51. Format/Info                              : Free Lossless Audio Codec
  52. Codec ID                                 : A_FLAC
  53. Duration                                 : 1 h 33 min
  54. Bit rate mode                            : Variable
  55. Bit rate                                 : 280 kb/s
  56. Channel(s)                               : 1 channel
  57. Channel layout                           : C
  58. Sampling rate                            : 48.0 kHz
  59. Frame rate                               : 11.719 FPS (4096 SPF)
  60. Bit depth                                : 16 bits
  61. Compression mode                         : Lossless
  62. Stream size                              : 187 MiB (2%)
  63. Writing library                          : libFLAC 1.3.3 (UTC 2019-08-04)
  64. Language                                 : English
  65. Default                                  : No
  66. Forced                                   : No

  67. Audio #3
  68. ID                                       : 4
  69. Format                                   : AAC LC
  70. Format/Info                              : Advanced Audio Codec Low Complexity
  71. Codec ID                                 : A_AAC-2
  72. Duration                                 : 1 h 33 min
  73. Bit rate                                 : 103 kb/s
  74. Channel(s)                               : 2 channels
  75. Channel layout                           : L R
  76. Sampling rate                            : 48.0 kHz
  77. Frame rate                               : 46.875 FPS (1024 SPF)
  78. Compression mode                         : Lossy
  79. Delay relative to video                  : 20 ms
  80. Stream size                              : 69.1 MiB (1%)
  81. Title                                    : Commentary
  82. Language                                 : English
  83. Default                                  : No
  84. Forced                                   : No

  85. Text #1
  86. ID                                       : 5
  87. Format                                   : UTF-8
  88. Codec ID                                 : S_TEXT/UTF8
  89. Codec ID/Info                            : UTF-8 Plain Text
  90. Duration                                 : 1 h 30 min
  91. Bit rate                                 : 35 b/s
  92. Count of elements                        : 696
  93. Stream size                              : 23.3 KiB (0%)
  94. Title                                    : English (Forced)
  95. Language                                 : English
  96. Default                                  : Yes
  97. Forced                                   : Yes

  98. Text #2
  99. ID                                       : 6
  100. Format                                   : PGS
  101. Muxing mode                              : zlib
  102. Codec ID                                 : S_HDMV/PGS
  103. Codec ID/Info                            : Picture based subtitle format used on BDs/HD-DVDs
  104. Duration                                 : 1 h 31 min
  105. Bit rate                                 : 22.5 kb/s
  106. Count of elements                        : 1514
  107. Stream size                              : 14.8 MiB (0%)
  108. Title                                    : SDH
  109. Language                                 : English
  110. Default                                  : No
  111. Forced                                   : No

  112. Text #3
  113. ID                                       : 7
  114. Format                                   : PGS
  115. Muxing mode                              : zlib
  116. Codec ID                                 : S_HDMV/PGS
  117. Codec ID/Info                            : Picture based subtitle format used on BDs/HD-DVDs
  118. Duration                                 : 1 h 30 min
  119. Bit rate                                 : 19.4 kb/s
  120. Count of elements                        : 1394
  121. Stream size                              : 12.6 MiB (0%)
  122. Language                                 : English
  123. Default                                  : No
  124. Forced                                   : No

  125. Menu
  126. 00:00:00.000                             : Chapter 01
  127. 00:08:13.201                             : Chapter 02
  128. 00:15:25.091                             : Chapter 03
  129. 00:25:20.269                             : Chapter 04
  130. 00:31:05.489                             : Chapter 05
  131. 00:38:40.360                             : Chapter 06
  132. 00:47:14.290                             : Chapter 07
  133. 00:51:31.130                             : Chapter 08
  134. 01:03:43.028                             : Chapter 09
  135. 01:08:17.969                             : Chapter 10
  136. 01:15:12.091                             : Chapter 11
  137. 01:25:29.333                             : Chapter 12
复制代码

毒品之街 The.Heroin.Busters.1977.1080p.BluRay.x264-ORBS 11.73GB

毒品之街 The.Heroin.Busters.1977.1080p.BluRay.x264-ORBS 11.73GB



蓝光高清网提示您 点击下方附件即可下载

毒品之街 The.Heroin.Busters.1977.1080p.BluRay.x264-ORBS 11.73GB

The.Heroin.Busters.1977.1080p.BluRay.x264-ORBS.torrent ( 15.4 KB )

加入蓝光高清网VIP会员  无限制下载本站所有资源---点这里

资源下载、资源播放、字幕使用、无法下载等常见问题---点这里
回复

使用道具 举报

全部回复0 显示全部楼层

发表回复

您需要登录后才可以回帖 登录 | 立即注册

本版积分规则

开通会员 帮助中心 返回顶部 返回列表