蓝光高清网

搜索
开启左侧

[探索海洋] 我的八爪鱼老师(港)/我的章鱼老师4k.My.Octopus.Teacher.2020.2160p.NF.WEB-DL.x265.10bit.SDR.DDP5.1-4k电影下载-7.50 GB

蓝鸟 发表于 2022-5-2 10:18:03 | 显示全部楼层 |阅读模式
简       介

  在花了数年时间拍摄地球上一些最危险的动物后,克雷格·福斯特疲惫不堪、情绪低落,并且家庭关系也陷入混乱之中。他决定暂停自己的事业,并回到家乡南非开普敦,重返海岸附近的海藻林,这里的神奇水下世界是他的原点。近十年来,克雷格每天都要在冰冷的海水中潜水,在地球上捕食者最密集的地方之一脱掉 潜水服和潜水装备。他遇到并追踪的普通章鱼最初是他的研究对象,然后成为了他的老师,向他展示了人类从未见过的东西。《我的章鱼老师》拍摄用时超过 8 年,拍摄了 3000 个小时,记录了独特的友谊和互动以及前所未见的动物智慧。


影片参数
我的八爪鱼老师(港)/我的章鱼老师4k.My.Octopus.Teacher.2020.2160p.NF.WEB-DL.x265.10bit.SDR.DDP5.1-4k电影信息
Video
ID : 1
Format : HEVC
Format/Info : High Efficiency Video Coding
Format profile : Main 10@L5@Main
Codec ID : V_MPEGH/ISO/HEVC
Duration : 1 h 25 min
Bit rate : 11.6 Mb/s
Width : 3 840 pixels
Height : 2 160 pixels
Display aspect ratio : 16:9
Frame rate mode : Constant
Frame rate : 25.000 FPS
Color space : YUV
Chroma subsampling : 4:2:0
Bit depth : 10 bits
Bits/(Pixel*Frame) : 0.056
Stream size : 6.97 GiB (93%)
Default : Yes
Forced : No
Color range : Limited
Color primaries : BT.709
Transfer characteristics : BT.709
Matrix coefficients : BT.709


Audio
ID : 2
Format : E-AC-3
Format/Info : Enhanced AC-3
Commercial name : Dolby Digital Plus
Codec ID : A_EAC3
Duration : 1 h 25 min
Bit rate mode : Constant
Bit rate : 640 kb/s
Channel(s) : 6 channels
Channel layout : L R C LFE Ls Rs
Sampling rate : 48.0 kHz
Frame rate : 31.250 FPS (1536 SPF)
Compression mode : Lossy
Stream size : 393 MiB (5%)
Language : English
Service kind : Complete Main
Default : Yes
Forced : No


Text #1
ID : 3
Format : UTF-8
Codec ID : S_TEXT/UTF8
Codec ID/Info : UTF-8 Plain Text
Title : English [SDH]
Language : English
Default : No
Forced : No


Text #2
ID : 4
Format : UTF-8
Codec ID : S_TEXT/UTF8
Codec ID/Info : UTF-8 Plain Text
Title : Arabic
Language : Arabic
Default : No
Forced : No


Text #3
ID : 5
Format : UTF-8
Codec ID : S_TEXT/UTF8
Codec ID/Info : UTF-8 Plain Text
Title : Chinese (Simplified)
Language : Chinese
Default : No
Forced : No


Text #25
ID : 27
Format : UTF-8
Codec ID : S_TEXT/UTF8
Codec ID/Info : UTF-8 Plain Text
Title : Russian
Language : Russian
Default : No
Forced : No


Text #26
ID : 28
Format : UTF-8
Codec ID : S_TEXT/UTF8
Codec ID/Info : UTF-8 Plain Text
Title : Spanish
Language : Spanish
Default : No
Forced : No


Text #27
ID : 29
Format : UTF-8
Codec ID : S_TEXT/UTF8
Codec ID/Info : UTF-8 Plain Text
Title : Spanish (Spain)
Language : Spanish
Default : No
Forced : No


Text #28
ID : 30
Format : UTF-8
Codec ID : S_TEXT/UTF8
Codec ID/Info : UTF-8 Plain Text
Title : Swedish
Language : Swedish
Default : No
Forced : No


Text #29
ID : 31
Format : UTF-8
Codec ID : S_TEXT/UTF8
Codec ID/Info : UTF-8 Plain Text
Title : Thai
Language : Thai
Default : No
Forced : No


Text #30
ID : 32
Format : UTF-8
Codec ID : S_TEXT/UTF8
Codec ID/Info : UTF-8 Plain Text
Title : Turkish
Language : Turkish
Default : No
Forced : No


Text #31
ID : 33
Format : UTF-8
Codec ID : S_TEXT/UTF8
Codec ID/Info : UTF-8 Plain Text
Title : Vietnamese
Language : Vietnamese
Default : No
Forced : No


蓝光高清网提示您 点击下方附件名称 即可开始下载


我的八爪鱼老师(港)/我的章鱼老师4k.My.Octopus.Teacher.2020.2160p.NF.WEB-DL.x265.10bit.SDR.DDP5.1-4k电影下载

我的章鱼老师4k.My.Octopus.Teacher.2020.2160p.NF.WEB-DL.x265.10bit.SDR.DDP5.1自带中文【4k SDR 7.50 GB】


我的章鱼老师中文字幕下载



来源: 我的八爪鱼老师(港)/我的章鱼老师4k.My.Octopus.Teacher.2020.2160p.NF.WEB-DL.x265.10bit.SDR.DDP5.1-4k电影下载-7.50 GB
加入蓝光高清网VIP会员  无限制下载本站所有资源---点这里

资源下载、资源播放、字幕使用、无法下载等常见问题---点这里
回复

使用道具 举报

全部回复0 显示全部楼层

发表回复

您需要登录后才可以回帖 登录 | 立即注册

本版积分规则

联系客服 关注微信 下载APP 返回顶部 返回列表