蓝光高清网

搜索
开启左侧

马尔科姆和玛丽 / 电影试爱 / 首映夜/马尔科姆与玛丽4k.Malcolm.and.Marie.2021.2160p.NF.WEB-DL.x265.10bit.HDR.DDP5.1.Atmos-4k电影下载-12.34 GB

蓝鸟 发表于 2022-5-2 10:23:09 | 显示全部楼层 |阅读模式
马尔科姆与玛丽 豆瓣评分: 7.3分
上映时间:2021年
类型:剧情 爱情 
地区:美国 
导演:萨姆·莱文森
主演:赞达亚 / 约翰·大卫·华盛顿
画质标准:4K HDR  封装音轨:Dolby TrueHD 5.1 
简       介5 o2 k& j0 |0 \  I4 V; Z6 u( y

, A' n/ ]" `5 |( I. E% v  讲述一个电影人和女友参加了电影首映庆功会后回家,影片成功在望,名和利唾手可得。而这个美好的夜晚在关于两人关系的一些东西开始曝光后突然转变,考验他们之间爱的力量。! X( v  E6 P7 Y8 |

3 s2 g! N0 Q- E+ z/ r! q

+ q. O2 S1 s5 O6 t; X影片参数3 p6 J1 n; Q8 z7 \! x# j5 p
马尔科姆和玛丽 / 电影试爱 / 首映夜/马尔科姆与玛丽4k.Malcolm.and.Marie.2021.2160p.NF.WEB-DL.x265.10bit.HDR.DDP5.1.Atmos-4k电影信息0 S+ p, B* L; `5 M+ J5 x& Q6 n
Video: Y0 q3 @. v- g! h) Z! Z
ID : 17 `3 C1 J2 z$ N7 R: I
Format : HEVC
( t7 S" L' C8 ~: }7 PFormat/Info : High Efficiency Video Coding
2 B7 }& b4 t" G7 f& ?Format profile : Main 10@L5@Main1 N0 A" J; _; a# k
HDR format : SMPTE ST 2086, HDR10 compatible$ J4 \2 J" z& C: e' K- W* r9 e
Codec ID : V_MPEGH/ISO/HEVC% A$ A; e% ~; |
Duration : 1 h 46 min: U) t- E% v$ w: |0 d5 f( w
Bit rate : 15.5 Mb/s
- k6 q9 J% T. e! Q1 kWidth : 3 840 pixels) p1 |" u' Z$ G& a
Height : 2 160 pixels3 W8 w) j" ]9 [% e7 C. H
Display aspect ratio : 16:9
* c1 u. G6 i) D5 gFrame rate mode : Constant
' k' w8 b7 |4 }$ ~' _: EFrame rate : 24.000 FPS
( O6 O" }% p- @4 f% J: }  V; AColor space : YUV" E* A0 P0 S! C9 n7 U: Z
Chroma subsampling : 4:2:0 (Type 2)
( r5 \& X7 ]+ Z! HBit depth : 10 bits
6 ^& r. I4 i# j9 v4 \/ V9 E; qBits/(Pixel*Frame) : 0.0789 n$ b. c( a% c( e% }' b
Stream size : 11.5 GiB (93%)& q& l8 O$ ~  K" @" N
Default : Yes
- i( q$ y+ v8 m" SForced : No1 R- G( T" W. q8 `
Color range : Limited: B4 d' l4 G; _3 @. w) `( G6 N
Color primaries : BT.2020" b, a5 W- `. E* z
Transfer characteristics : PQ
; {1 y! l0 M- n1 K' r& D5 h# nMatrix coefficients : BT.2020 non-constant3 A3 \1 m1 {' C* w
Mastering display color primaries : Display P33 q+ N0 e  A3 j  P8 Z5 ?
Mastering display luminance : min: 0.0050 cd/m2, max: 4000 cd/m2
, d: }* i, n2 o0 U; \Maximum Content Light Level : 738 cd/m22 k. }2 Q; f  c8 s0 R: Q1 Y
Maximum Frame-Average Light Level : 128 cd/m21 f2 }% Y! w( e) L
7 [+ [( [9 Z& F$ w' n4 e

0 Z, q. J+ h9 }/ k  v$ ]" f1 p$ S. O; aAudio
6 ]! X) n+ k) V+ |* K0 i# C6 `ID : 2
' Y" u0 F  k* S# UFormat : E-AC-3 JOC% V; x* S1 }$ A& y6 U9 Z( P5 x% E
Format/Info : Enhanced AC-3 with Joint Object Coding) B' ]% B, M  M% m9 C- c. h
Commercial name : Dolby Digital Plus with Dolby Atmos
% h) i! c$ j; \4 V0 M) w1 hCodec ID : A_EAC3
! q4 ?/ T: {; W3 v1 R" ^/ Z9 TDuration : 1 h 46 min# S9 }, W* z2 N% ?/ K$ C
Bit rate mode : Constant4 d' x# j3 g' p& ^
Bit rate : 768 kb/s
- y( \1 Q3 {2 f& {Channel(s) : 6 channels5 M1 u; r- t+ m; d. T9 I7 d5 h
Channel layout : L R C LFE Ls Rs
7 c' D. L' R2 `3 K  P) nSampling rate : 48.0 kHz
; z( J8 R" F$ z& [5 n, XFrame rate : 31.250 FPS (1536 SPF)
7 Y: ~; w# L, P1 l5 u# {: n' P% Y% zCompression mode : Lossy
6 M. E$ [" ]* I  S2 hStream size : 585 MiB (5%)
5 P2 k  t6 ]3 P6 ?* g+ SLanguage : English6 c% x, ?' Q, j. _" d
Service kind : Complete Main
/ @5 Q( g1 R# gDefault : Yes
! E  u) S* H- ]4 X* cForced : No
+ A1 I! p$ c! Y3 C( D! p! E) FComplexity index : 16
* j3 J  V4 S' f+ T% C( vNumber of dynamic objects : 15
1 J7 `4 e6 y: {Bed channel count : 1 channel, V$ e7 U  E4 M5 `0 ~7 g
Bed channel configuration : LFE
) V$ U& Y4 u: _6 `/ ]1 S9 v
# A3 ]% C6 H- o
) X& x# d' W5 O. Y# B
Text #1$ u' Y6 ~1 z7 i4 {/ M# U7 ?
ID : 3. i, C) U2 f( v7 \7 r
Format : UTF-8
7 R. D7 @. k/ A+ \  Z# LCodec ID : S_TEXT/UTF8
9 x8 p. J: Q9 Y3 t3 C! N5 ]0 n+ yCodec ID/Info : UTF-8 Plain Text1 g5 d* t  e+ A! c" }
Title : English [SDH]
! ~4 v) ~  ]6 H$ L- a/ d2 wLanguage : English+ a/ k/ ~, o5 t! q6 \9 `2 ^+ |$ ^: C0 W
Default : No: t. j( m7 O  j
Forced : No8 @+ @. E) H7 A. Z
8 [! a9 l$ P1 D  Z
# H+ k+ k. }' y5 n) Z  L
Text #2. c2 c! F6 L; u+ E6 z8 ]( N
ID : 4
8 T( \0 K8 F5 T. Y( }6 f5 }Format : UTF-8
7 e4 [5 F6 g5 F' n' X% RCodec ID : S_TEXT/UTF8) Y& v0 t6 O& U' q* ]
Codec ID/Info : UTF-8 Plain Text
9 A1 M. K: K# ~' v7 vTitle : Arabic* j! K+ j1 n, \/ Q. ]' G+ u* M4 M
Language : Arabic) r% f0 [( K0 d5 W& L
Default : No3 }- k: d+ ^& n/ q7 x1 V) B
Forced : No8 P, n' \( S. K

' A5 J7 {+ X9 c) j' A3 a3 U2 A1 I# k
- W& t* ]6 c) y7 p
Text #3
2 K6 m, z1 O: \. e# gID : 53 E# i; r' j2 P7 R6 u! i( C$ B
Format : UTF-8/ A' i# s0 h5 E! D- @1 R
Codec ID : S_TEXT/UTF8
6 h/ e! X9 g4 l4 ~" ACodec ID/Info : UTF-8 Plain Text
" u4 E2 T  s+ R# HTitle : Chinese (Simplified)
( B3 G# O6 I/ T- qLanguage : Chinese4 W, H& B- O& G( f: e: \
Default : No
* o) R4 r4 \! i6 KForced : No! u1 J- w  @, E# s6 e# H

. G8 e2 {" a9 `5 _. v
" Q5 s, O3 m5 |4 K' H4 N+ A
Text #4# }1 A7 N3 y* E) a) B4 @
ID : 68 x; G" _$ v. t; p) @" z3 y0 i
Format : UTF-8
$ H- _9 E' ]0 [5 p. qCodec ID : S_TEXT/UTF89 S8 D0 _( e/ {7 q1 C, T, P
Codec ID/Info : UTF-8 Plain Text
9 j+ O+ M  T1 e/ T: s4 WTitle : Chinese (Traditional)
- v" G/ x) B, ^& Y' E3 Z  G9 pLanguage : Chinese
- p& _3 F- q+ k+ r1 SDefault : No" m( R, W0 b" ?, y* c9 k, B
Forced : No
$ X/ o) [8 X( @. V( C$ E9 X+ z5 O) c  F, `

5 H' u3 R5 a5 Z  Y2 VText #53 d% K) D7 b- e0 t4 R3 S
ID : 76 w2 A$ \! w9 g. h6 K, o6 e
Format : UTF-8
- l& ^: l) Q) W8 c+ @! n  uCodec ID : S_TEXT/UTF85 x- |6 ?# l& b4 j" ^" B/ C4 H
Codec ID/Info : UTF-8 Plain Text
6 O0 X3 }7 k# y; N. o7 STitle : Croatian8 |% O7 x! ~7 P8 Q" o
Language : Croatian, [8 I( y2 @! U4 L; V
Default : No8 ]9 q4 t5 `" [+ V6 P- j0 q- Q
Forced : No
/ y' o) B; W( [6 u6 T
1 U' g% y( D- l. N
  y% @5 `* _1 _% u
Text #6
! J/ U7 j& o6 N1 v: QID : 8% B3 k* i8 T$ Z5 l! ^7 {  y
Format : UTF-8. P% H/ T1 m: f# B
Codec ID : S_TEXT/UTF8
) i. e1 ~" ^6 M% g  W% LCodec ID/Info : UTF-8 Plain Text
. y, t! R# ?# l: c) k9 TTitle : Czech
$ w6 i: g. i1 Q. KLanguage : Czech0 \. O1 `% e8 B+ ]
Default : No
7 u* [3 J$ S$ ?, U  PForced : No
) H( L  O0 t5 f+ U
3 N8 {# k. |% }, h# F5 [( C$ n# m0 @3 {
蓝光高清网提示您 点击下方附件名称 即可开始下载
# @* V! K7 Q4 g' I% K0 f) T& C9 o
, w, T! B' c) e0 F6 |; b0 Q

1 \! B) G6 w5 H. X, n多版本下载时请注意区分
. J' Y. c( d: c, O' X" W
) i; k( l4 n% F4 k

: ^  F2 G! j5 ?  q4 }马尔科姆和玛丽 / 电影试爱 / 首映夜/马尔科姆与玛丽4k.Malcolm.and.Marie.2021.2160p.NF.WEB-DL.x265.10bit.HDR.DDP5.1.Atmos-4k电影下载/ d0 A+ W+ I6 R8 S" A4 d" h& B7 B, S
+ @# A3 P! k4 h$ ]6 ^. E
马尔科姆与玛丽4k.Malcolm.and.Marie.2021.2160p.NF.WEB-DL.x265.10bit.HDR.DDP5.1.Atmos自带简繁中字【12.34 GB】
, y; [; V+ B6 Y

马尔科姆与玛丽 4k.Malcolm.and.Marie.2021.2160p.NF.WEB-DL.x265.10bit.HDR.DDP5.1.Atmos-20DOLLARS.torrent ( 16.15 KB )

, `% B! q. z  a! P- J
7 Q. N- ~# T* P% |1 ]0 S1 K5 Y
马尔科姆与玛丽4k.Malcolm.and.Marie.2021.2160p.NF.WEB-DL.x265.10bit.SDR.DDP5.1.Atmos【9.45 GB】: ?! G# O9 F4 }, V! a9 t

马尔科姆与玛丽 4k.Malcolm.and.Marie.2021.2160p.NF.WEB-DL.x265.10bit.SDR.DDP5.1.Atmos-20DOLLARS.torrent ( 24.35 KB )

9 m& m1 R  g+ X: b

9 b" I, _2 u  v- b) Y8 p; Z! Z马尔科姆与玛丽4k.Malcolm.and.Marie.2021.2160p.NF.WEB-DL.DDP5.1.Atmos.DV.MP4.x265【12.46 GB】5 m: o2 W% t0 n& `

马尔科姆与玛丽 4k.Malcolm.and.Marie.2021.2160p.NF.WEB-DL.DDP5.1.Atmos.DV.MP4.x265-DVSUX.torrent ( 16.24 KB )

3 \2 m4 |! M) {9 {. H

/ L! k" x% b- [9 ^) d1 y马尔科姆与玛丽4k.Malcolm.and.Marie.2021.2160p.NF.WEB-DL.DDP5.1.Atmos.DV.MKV.x265【12.46 GB】: G. b1 J7 V5 i. e2 @

4 ~' j0 s& d" q+ a# s0 O

马尔科姆与玛丽 4k.Malcolm.and.Marie.2021.2160p.NF.WEB-DL.DDP5.1.Atmos.DV.MKV.x265-20DOLLARS.torrent ( 16.3 KB )

1 Y0 j! X. g/ |# e

7 l3 X2 H9 b6 A; ?( ^4 L) `: p7 q/ o, j6 y3 F7 m- ^) o
马尔科姆与玛丽中文字幕下载4 v, n/ p5 i5 W/ _+ V0 W$ j

马尔科姆与玛丽.Malcolm.and.Marie.2021.1080p.WEB.H264-NAISU.zip ( 85.6 KB )

( J" G: J2 U$ g0 @3 O3 K
加入蓝光高清网VIP会员  无限制下载本站所有资源---点这里

资源下载、资源播放、字幕使用、无法下载等常见问题---点这里
回复

使用道具 举报

全部回复0 显示全部楼层

发表回复

您需要登录后才可以回帖 登录 | 立即注册

本版积分规则

联系客服 关注微信 下载APP 返回顶部 返回列表