蓝光高清网

搜索
开启左侧

择洗沟宅男(港) / 神机有毛病(台) / 我的手机女友/杰克茜4k.Jexi.2019.2160p.WEB-DL.x265.10bit.HDR.DTS-HD.MA.5.1-4k电影下载-16.47 GB

蓝鸟 发表于 2022-5-3 17:24:21 | 显示全部楼层 |阅读模式
杰克茜 豆瓣评分: 6.5分
上映时间:2019年
类型:喜剧 
地区:美国 
导演:乔恩·卢卡斯 / 斯科特·摩尔
主演:亚当·德维尼 / 亚历山德拉·希普 / 罗丝·伯恩 / 罗恩·芬奇斯 / 查琳·易
画质标准:4K HDR  封装音轨:Dolby TrueHD 5.1 
简       介
, ]: `, p4 M4 I% _0 p$ Y; n+ B5 e1 p6 p2 J
- [8 P% K8 a  p1 {' J/ q
  莱克茜是个人工智能助理,她将让“生活更美好”作为己任。而菲尔是个爱手机如命的普通上班族,当杰克茜与菲尔狭路相逢,他们之间发生了一段段令人啼笑皆非的故事。
  c: {! e. U( w; G0 B- ?5 f6 r
9 s6 r& {7 r% Q- M! U8 E

  n( \. P& |' P7 A, Y" ?% r影片参数# h: x3 A) Q! o3 J/ |
择洗沟宅男(港) / 神机有毛病(台) / 我的手机女友/杰克茜4k.Jexi.2019.2160p.WEB-DL.x265.10bit.HDR.DTS-HD.MA.5.1-4k电影信息
7 F* ?* k2 K$ E7 O! S% iVideo
- ]( k) K8 X, ^  k' l- JID : 1
7 ~$ m% A  v) [- cFormat : HEVC0 [1 I) y* p( R% o* W
Format/Info : High Efficiency Video Coding- k8 F% m( H: W5 C2 x. s: c
Format profile : Main 10@L5@High
1 ~- [6 k0 v. l0 XHDR format : SMPTE ST 2086, HDR10 compatible
7 r9 C7 V, a! f. |+ }! u) d: M3 DCodec ID : V_MPEGH/ISO/HEVC
" D6 R9 P7 b% q0 Z$ h& X$ m: |Duration : 1 h 24 min! z( g4 L6 W$ \7 V2 y
Bit rate : 24.1 Mb/s
9 O0 v+ ]2 l! `5 g4 T4 GWidth : 3 828 pixels
5 F' n- v+ k' `  w/ `* nHeight : 1 592 pixels/ D5 f1 Z7 {% R+ p
Display aspect ratio : 2.40:1
9 O8 l* f" m! I+ T& ~7 qFrame rate mode : Constant* x; j* [! T5 z! f
Frame rate : 23.976 FPS
% X' n/ V6 O1 V7 d/ X: K" n% c* GColor space : YUV  w* z8 x& |3 ?& o7 q8 z
Chroma subsampling : 4:2:0 (Type 2)
7 o* Y! x% M! q! y: aBit depth : 10 bits6 E3 J2 m7 o8 m: u
Bits/(Pixel*Frame) : 0.165
5 ~6 M3 Q2 n; t" nStream size : 14.2 GiB (86%)
# f3 V; D3 \: t: h6 z0 kDefault : Yes6 u! J& J4 I/ m; z
Forced : No7 U4 s2 d9 d5 R9 ?3 e3 w/ Z
Color range : Limited) Q6 F2 t; @: V9 M! F/ _9 u3 Z
Color primaries : BT.2020" E: w. ]# U6 H% ]) H' H
Transfer characteristics : PQ
9 ]% g3 v7 ^3 v6 G' I( ^* {Matrix coefficients : BT.2020 non-constant' z) u% k! k# }: Z- \: {: I
Mastering display color primaries : BT.2020: B8 G  D6 H8 I
Mastering display luminance : min: 0.0050 cd/m2, max: 1000 cd/m20 Q1 E# @9 [. d9 ?# r. t! F7 W
Maximum Content Light Level : 323 cd/m2: n4 R8 l+ L& m2 `) b0 p
Maximum Frame-Average Light Level : 93 cd/m2
5 Z$ z8 q$ M) o; K3 Q1 [1 B9 }# c

0 I" x& Y2 F) H0 k0 yAudio #1. L9 _0 k, J; ~; ]  S1 c! A
ID : 2( ?& T- t* l+ T8 `$ i5 H
Format : DTS XLL& ^( |6 N% j5 d6 Q! S) P8 \$ {
Format/Info : Digital Theater Systems, t4 Q4 r5 o- q; w3 f
Commercial name : DTS-HD Master Audio) O) n* G9 s5 m* G  @
Codec ID : A_DTS
7 n+ l1 _. M  `6 P( I) k8 H4 h9 nDuration : 1 h 24 min8 f- E9 l8 Y. ]$ K' ^- {- k6 P. w, D
Bit rate mode : Variable
2 W1 Z4 c  x3 K8 gBit rate : 3 371 kb/s
: J9 [1 D, H& T' r5 GChannel(s) : 6 channels" C$ d  v5 K9 b, q) I* B
Channel layout : C L R Ls Rs LFE
. R; F: T$ }% \4 ]5 Q$ l" ESampling rate : 48.0 kHz
2 `# w8 u6 }% ?9 G7 ^  w" EFrame rate : 93.750 FPS (512 SPF). B" z) P2 C9 K& b$ ~( X7 K1 @! S% s
Bit depth : 24 bits1 {+ O: A5 B2 \: {
Compression mode : Lossless
7 f% K2 `  y$ R2 S. u' sDelay relative to video : 6 ms4 f% G' u3 N9 Z2 [9 I
Stream size : 1.99 GiB (12%)
$ ^9 X  }( r  {; j& YTitle : DTS-HD MA 5.1
  S/ `* l1 i% h. X# a6 A/ q1 n" dLanguage : English
' G$ `. l! K  C5 pDefault : Yes
% p3 f' H" Q. K) d/ _' ^# p/ XForced : No! u9 d& f, P/ Y+ d
+ `, n8 O: V" @# w; I0 H, b% w: N% [7 p

$ n& Q) W& z+ W, z) L4 |. ^+ V, oAudio #2
) O6 |* s& I" k8 H9 eID : 34 g1 w2 P3 r; Y& ~, r  o
Format : AC-35 @' n" D1 t' P8 b7 f
Format/Info : Audio Coding 3
$ E$ \, y# M9 K$ n5 m! tCommercial name : Dolby Digital
0 I: i/ g8 M8 c, L5 ZCodec ID : A_AC3" m3 u- a# M5 a( B  ?
Duration : 1 h 24 min% ^1 k- I8 k  z7 F4 D
Bit rate mode : Constant; r9 a8 B: p2 d4 E: v
Bit rate : 384 kb/s
' u2 f& i: V8 w1 i8 ^Channel(s) : 6 channels- A' @$ X% p# u' S; W
Channel layout : L R C LFE Ls Rs
) M* t+ z6 L( O" D: U6 GSampling rate : 48.0 kHz
( }0 V& W( e: j& c8 G0 f: RFrame rate : 31.250 FPS (1536 SPF)
3 y$ S- o3 {% q; D% nCompression mode : Lossy
3 z8 f( V, F$ g" X; X' H) _Stream size : 232 MiB (1%)
, A1 g5 J+ N7 k% Z+ m% {( }7 dLanguage : English9 m4 z1 h  i; _
Service kind : Complete Main
& x; M% x- M: x4 r: t/ _Default : Yes
/ w+ A" m8 c* c& K5 _- w) e; VForced : No
# N$ d* Q/ M9 Q* y. Q) n; C# F. H( @- }9 t- z" S: W2 I# w/ [

" S# U5 G+ j$ t! FText #1
( T4 j4 H7 P4 _! ?$ [ID : 4: G* `0 [$ W# g7 F: D( S  `7 F8 g
Format : UTF-8- W# p+ \$ i9 h- J1 I2 T
Codec ID : S_TEXT/UTF8
) @0 @$ L% Y0 k  y7 a2 l9 ~Codec ID/Info : UTF-8 Plain Text
) ?/ k, M- C! q$ h6 |Duration : 1 h 19 min
' o) s* h" L, c) |/ o9 [8 aBit rate : 105 b/s
. @' @) x5 H) j7 u2 mCount of elements : 1940
( Q* {. Y( e& y- S1 i' N& bStream size : 61.4 KiB (0%)
% o% ^2 ]( I8 O  o: uTitle : English CC( I' r7 R; Y- ]/ V
Language : English1 e7 Z+ V% W2 b8 D
Default : Yes
  K/ [2 ^# {5 x1 [6 ?9 k9 ~( IForced : No. t% i* M4 H  t6 A( b! @- W. N. H
9 `. N7 H7 @5 A. g( J. m9 P
3 u+ T. R$ {+ z3 ^
Text #2
  D. _, A& ]& {0 X$ V3 Y6 yID : 5( B  }, w' E, S
Format : PGS6 K0 l9 _% b' H5 ~
Muxing mode : zlib
3 C6 _: U+ H  ]% D( @- ECodec ID : S_HDMV/PGS& c/ K( A# d* e
Codec ID/Info : Picture based subtitle format used on BDs/HD-DVDs
' \/ F- q$ [4 ]% c( g' O0 d' qDuration : 1 h 19 min% m! \' ?1 v# k1 d4 U
Bit rate : 59.7 kb/s
5 _# i- K9 d: z. b5 ^- CCount of elements : 3340
7 L) C. a/ @) _3 y: f! S: i! FStream size : 34.0 MiB (0%)
% n- O+ ?! G' ?. c$ \6 FTitle : English (SDH)- H0 v* d6 m) A
Language : English! N% o$ L( p# Q, V, F' c% F1 |. i* ^
Default : No6 E6 v3 p/ G! V9 c
Forced : No
; ]5 ]6 S. o1 H; j5 Z
& h! t7 {' r6 V9 e+ J  I4 |9 ?* C

5 g0 H- |1 {/ a) F. Q' |Text #3
7 P. g8 X/ j& v8 q; ?# c1 S& KID : 67 }/ r, x& w( \
Format : PGS
1 a: J5 I: |, B+ C* \( i- PMuxing mode : zlib' ~+ A* y. ^8 Z
Codec ID : S_HDMV/PGS
& F4 m# U) |' I5 X. q+ A0 ACodec ID/Info : Picture based subtitle format used on BDs/HD-DVDs
- m, }7 q5 y4 u5 l& kDuration : 1 h 19 min
- A/ L  ?  H" w4 }3 H- D8 RBit rate : 49.0 kb/s3 @4 U6 d8 h- w
Count of elements : 28581 F8 ~0 B5 k+ I4 G+ G
Stream size : 27.7 MiB (0%)! ]% l3 {! g) S$ l5 U9 V
Title : Spanish (Latin American)8 M% \6 Z, T- Q, R$ w: S0 V
Language : Spanish' R' N! V9 D! Y( E; s8 N' {* J! T
Default : No
9 n7 f) F6 R. u( F5 g1 eForced : No
: J: {6 y. o% `. X% ^! i) @7 h3 R6 v: F
  K8 |% V# F2 t
Menu1 R5 C/ Z  r* m/ r" Y" w; K/ Y" m* k
00:00:00.000 : en:Chapter 01
7 }) I' Q$ i0 z. W) Z) ^00:02:53.000 : en:Chapter 02
5 h5 V7 o4 i9 o2 t$ [00:13:33.000 : en:Chapter 03
; |1 K# i( v* x! n, X8 E00:20:41.000 : en:Chapter 04
. g# D1 O1 D; A3 x" G00:29:40.000 : en:Chapter 05& W% R5 H0 E" l
00:38:26.000 : en:Chapter 06! X/ f, @2 k% M6 G  `5 Y
00:47:47.000 : en:Chapter 07/ D2 d% f" R- C3 a, ?
00:58:55.000 : en:Chapter 08: C- D1 r" x4 ], L9 ^" h- ^- s5 j
01:07:33.000 : en:Chapter 091 Q9 n9 i$ d/ F! D5 m! @7 r
01:18:54.000 : en:Chapter 10

# B! X: `+ l& w! m! w
3 ?: F5 f! L6 G" t  b# {2 ?
蓝光高清网提示您 点击下方附件名称 即可开始下载
$ D% q! z7 b+ a+ N" |# X: h
$ v2 @; ~# n9 [, h( ~$ _
* K  i1 \8 ~; y- Q
多版本下载时请注意区分4 g7 \1 }( Z! G2 [) K$ f

% g; q1 S- l1 |3 n: `2 q1 C/ Z: ~
& c: v* t8 {# b' I2 X
择洗沟宅男(港) / 神机有毛病(台) / 我的手机女友/杰克茜4k.Jexi.2019.2160p.WEB-DL.x265.10bit.HDR.DTS-HD.MA.5.1-4k电影下载
/ B9 F4 \/ Q/ p* y) X, V
! R5 \4 J4 X+ H4 U1 q, t杰克茜4k.Jexi.2019.2160p.WEB-DL.x265.10bit.HDR.DTS-HD.MA.5.1【16.47 GB】5 `8 F6 y( p* k2 _8 Y; X) h

杰克茜4k.Jexi.2019.2160p.WEB-DL.x265.10bit.HDR.DTS-HD.MA.5.1-NOGRP.torrent ( 21.24 KB )

2 P, \6 J" u! t9 R; e! h3 @2 T

8 |* n: [. ^# d0 x杰克茜4k.Jexi.2019.2160p.WEB-DL.x265.10bit.SDR.DTS-HD.MA.5.1【14.45 GB】, A9 E; I; r# {' D+ r- Y' s+ Y

杰克茜4k.Jexi.2019.2160p.WEB-DL.x265.10bit.SDR.DTS-HD.MA.5.1-NOGRP.torrent ( 18.7 KB )


, f0 L- g' s- P; H/ v0 i
4 `) g# l6 U/ h* Z& }杰克茜4k.Jexi.2019.2160p.WEB-DL.DTS-HD.MA.5.1.DV.MKV.x265【16.62 GB】9 N9 S9 y# C- e5 ?$ Y- B6 ^; M. n

杰克茜4k.Jexi.2019.2160p.WEB-DL.DTS-HD.MA.5.1.DV.MKV.x265-DVSUX.torrent ( 21.41 KB )

, [9 ~. F- Z* W( g* Q
6 q. W, R, L; w2 `9 v
杰克茜4k.Jexi.2019.2160p.WEB-DL.DD5.1.DV.MP4.x265【14.60 GB】
1 u" q3 [/ n' P( J6 z2 F: K1 c

杰克茜4k.Jexi.2019.2160p.WEB-DL.DD5.1.DV.MP4.x265-DVSUX.torrent ( 18.87 KB )

3 |2 {9 ~- [) P( {4 `
9 K* a* ~. U) q$ q# M/ ]
杰克茜中文字幕下载
1 n9 u7 E, n) a3 }

Jexi.2019.1080p.WEBRip.DD5.1.x264-CM.zip ( 302.55 KB )


$ m4 E# R9 H5 ]* h# c

/ i. e4 |9 ^. _+ Q+ v2 {
加入蓝光高清网VIP会员  无限制下载本站所有资源---点这里

资源下载、资源播放、字幕使用、无法下载等常见问题---点这里
回复

使用道具 举报

全部回复4 显示全部楼层
PCHUN 发表于 2022-5-4 00:03:05 | 显示全部楼层
Thanks  for sharing
回复 支持 反对

使用道具 举报

dongshouba手机认证 发表于 2022-5-5 00:41:19 | 显示全部楼层
感谢分享
回复

使用道具 举报

wr9291手机认证 发表于 2022-5-9 00:03:20 | 显示全部楼层
# V) ^" ^/ A/ J, \% b; ^3 ?
感谢分享
回复

使用道具 举报

wr9291手机认证 发表于 2022-5-9 00:39:04 | 显示全部楼层

$ W5 q; _+ E7 R  S感谢分享
回复

使用道具 举报

发表回复

您需要登录后才可以回帖 登录 | 立即注册

本版积分规则

联系客服 关注微信 下载APP 返回顶部 返回列表