蓝光高清网

搜索
开启左侧

大坏蛋 / 坏家伙 / Bad Guys/坏蛋联盟4k.The.Bad.Guys.2022.2160p.AMZN.WEB-DL.x265.10bit.HDR10Plus.DDP5.1-4k电影下载-10.93 GB

蓝鸟 发表于 2022-5-3 17:29:53 | 显示全部楼层 |阅读模式
坏蛋联盟 豆瓣评分: 无评分
上映时间:2022年
类型:动画 冒险 
地区:美国 
导演:彼埃尔·佩里菲尔
主演:山姆·洛克威尔 / 马克·马龙 / 奥卡菲娜 / 克雷格·罗宾森 / 安东尼·拉莫斯
画质标准:4K HDR  封装音轨:Dolby TrueHD 5.1 
简       介* T% A+ V0 @4 H7 l8 x

/ B, P! s9 `0 F  故事的主角是五个无恶不作的坏蛋——风度翩翩的扒手“大坏狼”、见多识广的保险箱窃贼“贪心蛇”、冷静沉稳的伪装大师“美肚鲨”、暴躁易怒的打手“食人鱼”、伶牙俐齿的黑客专家“骇客蛛”闪亮登场,他们是最臭名昭著的“坏蛋联盟”。他们平时威风八面,四处作案,令人闻风丧胆。直到某一天,他们突然想成为模范公民,然而转型路途甚是艰难,且意外层出不穷,令人啼笑皆非。9 y/ `' V# L4 Y

# d; H7 j- e6 v: G% t
" J. ^8 P0 o7 E4 ?! U! Y( y
影片参数5 G, g4 {, t" P" c
大坏蛋 / 坏家伙 / Bad Guys/坏蛋联盟4k.The.Bad.Guys.2022.2160p.AMZN.WEB-DL.x265.10bit.HDR10Plus.DDP5.1-4k电影信息+ r# {& @9 I/ T6 Z5 S) {! V7 f+ `
Video
& x9 H: k6 E- i/ Q1 S/ T: z( ~& X! vID : 1
# w0 [- l5 ~5 ?8 s8 YFormat : HEVC
2 a$ z; c0 ~" H6 Y9 \* jFormat/Info : High Efficiency Video Coding* U/ s- M8 D. A
Format profile : Main 10@L5@Main
$ Q! N5 h: C' GHDR format : SMPTE ST 2094 App 4, Version 1, HDR10+ Profile B compatible
5 s. @4 f; v) e3 OCodec ID : V_MPEGH/ISO/HEVC$ q# a' g! j: M. m: \
Duration : 1 h 40 min# g5 G! T5 U! D
Bit rate : 15.0 Mb/s+ C2 G) F3 }# l; H
Width : 3 840 pixels: I1 u* K* g' W& E% T
Height : 1 600 pixels& l' h9 p7 H# P6 S- A- w4 K$ K
Display aspect ratio : 2.40:1. o" ]7 J! F* i4 a9 O: @
Frame rate mode : Constant
2 v3 x8 }. f3 L9 d% u) p: Z0 jFrame rate : 23.976 (24000/1001) FPS& e* {  h7 A' ]. e( R+ @
Color space : YUV
' q! F+ }  K9 @' ^' |/ o* SChroma subsampling : 4:2:0
' ]5 ]: _$ o0 X( I; }+ ^4 YBit depth : 10 bits
, X) t$ C) Z8 q" g9 k/ FBits/(Pixel*Frame) : 0.1021 W& i5 T3 {2 ?/ S- ]0 O( A% L8 }
Stream size : 10.5 GiB (96%)+ f9 v& E- |. z; \$ P! o" U, c" C
Language : English- W3 w3 h/ e7 o; Z
Default : Yes
7 U6 }( c- s# R# Y/ NForced : No0 R  L& Y8 N, }8 I" t
Color range : Limited
$ |( q$ O& ~* b& mColor primaries : BT.2020$ m) _$ _  D4 L7 i2 c
Transfer characteristics : PQ) [# ~$ q6 A( {% O. l7 x
Matrix coefficients : BT.2020 non-constant
3 Z  y+ r/ B6 O8 I6 u" GMastering display color primaries : Display P3' V5 T! W" C0 m$ m3 k* K
Mastering display luminance : min: 0.0001 cd/m2, max: 1000 cd/m2# v9 L. H( [  Y: ]
Maximum Content Light Level : 651 cd/m2
# }; y; ^- r$ n3 ^/ g; YMaximum Frame-Average Light Level : 240 cd/m2
+ F! _! ^" `, m* O/ @9 s) R7 n0 v& Y

1 q1 w: H: M+ uAudio
' r) c' z  K% t1 L1 B0 KID : 2
& w/ ~- V2 c4 S. D2 d& o. PFormat : E-AC-3
3 i0 `5 I- R5 w% AFormat/Info : Enhanced AC-3
- Z: n1 j6 E. u- E6 aCommercial name : Dolby Digital Plus& ^# w3 `0 d" ~! H% D2 W, L- J
Codec ID : A_EAC3
; i$ U3 c/ e) oDuration : 1 h 40 min
: M( P9 [% y  ?, B' tBit rate mode : Constant# z- T" i0 P8 P( @5 |0 A
Bit rate : 640 kb/s
# X2 N4 B: ]3 w# _Channel(s) : 6 channels
8 j4 [. a5 W" A% v& \Channel layout : L R C LFE Ls Rs
' a8 c& G$ b  b3 A, t9 J9 S9 x. M' dSampling rate : 48.0 kHz( S* u9 z5 a( S3 I& }( Z: J) e
Frame rate : 31.250 FPS (1536 SPF)
- ?0 K3 a( z% ~" l" P5 [$ ?/ r" r% bCompression mode : Lossy
6 `6 J/ l0 O: YStream size : 458 MiB (4%)
' |* l. N7 T/ x% k* PLanguage : English
- R- `: U! k9 c7 oService kind : Complete Main
+ W& |- q6 Z" e/ c/ k' q! xDefault : Yes
" r+ n% N. T& _5 J; m# EForced : No# E5 i9 U( k8 \9 M# P

& ]# r& l: x) @  [% x1 s

/ Z' W+ e4 n  U# U6 O! nText #1! f* Z. @3 x; J* @2 c' G9 e( C
ID : 3  Z2 p: m/ z9 |+ @& o
Format : UTF-8* ]  p0 F- i  Y) t4 X+ a9 P
Codec ID : S_TEXT/UTF8
% c; C' f' h8 ?Codec ID/Info : UTF-8 Plain Text% h( x! x% |% \
Duration : 1 h 39 min
3 z5 s6 S! a. j6 WBit rate : 87 b/s
" }7 _- v2 y2 Z5 {% u* qCount of elements : 2288
9 Z# p) Y% b) h( Q( `- j) j3 PStream size : 64.4 KiB (0%)9 h( o2 T, `/ G, _
Title : British SDH
! |( A" n  k/ R/ s; S# [! nLanguage : English
! [. o( S4 Q* ^  P5 WDefault : No
1 ]! \- l& l: T( u& `: FForced : No
" {& C3 V% ?) l+ \0 Q- j8 s9 T
7 r9 g  ?4 U! ]( t6 `8 J
- a% H8 M* X6 Z7 n0 N+ O" k( V
Text #28 s7 C, ?' Q6 x
ID : 46 u0 l2 G3 D0 k
Format : UTF-8. O4 X: l+ y$ Y1 A( t! z9 ^
Codec ID : S_TEXT/UTF8
( X4 h) B* q4 t) i, g* j/ ^) ~Codec ID/Info : UTF-8 Plain Text. n9 d1 z" S# f6 d
Duration : 1 h 32 min; y4 |& i% x. C- i5 _' W4 Z- D
Bit rate : 73 b/s3 f; T" J) D. U6 h/ N+ D
Count of elements : 1775! \1 l  Z5 F( {; W' D
Stream size : 49.9 KiB (0%)" O  Q- D! u4 D' C& ]
Title : British
. X8 V' ?2 `2 R1 m% `) S% [1 ILanguage : English) I& k# e+ n5 ~
Default : No# t" T# K: l6 [( a, \8 N) S) ~
Forced : No

2 A0 d4 {; m! T5 [+ \+ a! p: I. ]% m' h6 {5 ]4 e# l" p
蓝光高清网提示您 点击下方附件名称 即可开始下载
1 N" f# ^8 x& w/ I  r
2 Q& N* [( {, C# {  g* k) F
: p% F, D  h( f; n" E( t2 L# A
多版本下载时请注意区分
& T2 R  y+ t/ S) D1 K
1 N$ H  j6 G3 W) F1 s4 F0 H

  M8 n4 H9 L% i8 B  D3 f4 s大坏蛋 / 坏家伙 / Bad Guys/坏蛋联盟4k.The.Bad.Guys.2022.2160p.AMZN.WEB-DL.x265.10bit.HDR10Plus.DDP5.1-4k电影下载# Q. @% \3 d3 A, [- `- D& I/ t3 B
- e# T  B. N, i+ l1 J0 o
坏蛋联盟4k.The.Bad.Guys.2022.2160p.AMZN.WEB-DL.x265.10bit.HDR10Plus.DDP5.1【4k HDR 10.93 GB】* m7 Q) e% `. M' U$ C

坏蛋联盟4k.The.Bad.Guys.2022.2160p.AMZN.WEB-DL.x265.10bit.HDR10Plus.DDP5.1-CM.torrent ( 14.31 KB )


* t9 E; P1 z+ i  Z- v
" o# V8 x& j5 m$ e/ d& u2 ~坏蛋联盟 中文字幕下载1 M9 R! J% J: ?& ]/ ^2 E& i' c

坏蛋联盟the bad guys 字幕包.zip ( 281.11 KB )


1 k& L, A0 s! T8 ?

6 Q5 h- e* @. d! n* D6 D# t
加入蓝光高清网VIP会员  无限制下载本站所有资源---点这里

资源下载、资源播放、字幕使用、无法下载等常见问题---点这里
回复

使用道具 举报

全部回复5 显示全部楼层
PCHUN 发表于 2022-5-4 00:02:44 | 显示全部楼层
Thanks  for sharing
回复 支持 反对

使用道具 举报

dongshouba手机认证 发表于 2022-5-4 03:05:56 | 显示全部楼层
感谢分享
回复

使用道具 举报

登高手机认证 发表于 2022-5-7 08:43:03 | 显示全部楼层

. C3 ~9 Y0 k1 f) w9 k谢谢分享
回复

使用道具 举报

annyi 发表于 7 天前 | 显示全部楼层
谢谢分享!
回复

使用道具 举报

再会未来 发表于 7 天前 | 显示全部楼层
谢谢分享
回复

使用道具 举报

发表回复

您需要登录后才可以回帖 登录 | 立即注册

本版积分规则

联系客服 关注微信 下载APP 返回顶部 返回列表