本站已运行

蓝光高清网

搜索

[剧情] 世界上最伟大的父亲[简繁字幕].Worlds.Greatest.Dad.2009.BluRay.1080p.DTS-HD.MA5.1.x265.10bit-ALT 10.95GB

蓝鸟 发表于 2022-5-4 07:54:35 | 显示全部楼层 |阅读模式

世界上最伟大的父亲[简繁字幕].Worlds.Greatest.Dad.2009.BluRay.1080p.DTS-HD.MA5.1.x265.10bit-ALT 10.95 ...

世界上最伟大的父亲[简繁字幕].Worlds.Greatest.Dad.2009.BluRay.1080p.DTS-HD.MA5.1.x265.10bit-ALT 10.95 ...


译  名 世界上最伟大的父亲 / 世上最赞老爸(台) / 世界上最伟大的爸爸 / 世上只有爸爸好
片  名 World''s Greatest Dad
年  代 2009
产  地 美国
类  别 剧情 / 喜剧
语  言 英语
上映日期 2009-08-21
豆瓣评分 7.4/10 (9348人评价)
片  长 99 分钟
导  演 博卡·格德斯维特 Bobcat Goldthwait
编  剧 博卡·格德斯维特 Bobcat Goldthwait
演  员 罗宾·威廉姆斯 Robin Williams
       达里尔·沙巴拉 Daryl Sabara
        Michael Thomas Moore
       杰梅因·威廉姆斯 Jermaine Williams
        T.J. Newton
       埃莉·詹姆森 Ellie Jameson
       亨利·西蒙斯 Henry Simmons
       托比·哈斯 Toby Huss
       Cheri Minns Cheri Minns
       洛琳·尼科尔森 Lorraine Nicholson
       阿丽克谢·吉尔莫 Alexie Gilmore
        Heidi Barrientes
       汤姆·肯尼 Tom Kenny
       Mitzi McCall Mitzi McCall
       克里斯特·诺沃塞克 Krist Novoselic
       吉奥夫·皮尔森 Geoff Pierson
       吉尔·塔利 Jill Talley
       韦恩·巴斯楚普 Wayne Bastrup
       博卡·格德斯维特 Bobcat Goldthwait
        Crystal Rainbow Mort
       Bruce Hornsby Bruce Hornsby
       霍华德·格特勒 Howard Gertler
       Tim Perell Tim Perell
       理查德·凯利 Richard Kelly
       露丝·兰伯特 Ruth Lambert
       Robert McGee Robert McGee
       Jennifer Popochock Jennifer Popochock
       Cheri Minns Cheri Minns
        Mariela Comitini
       Bob Froehlig Bob Froehlig
        Christopher Ide
       Olcun Tan Olcun Tan
        Ian T. Barbella
       托马斯·坦嫩伯格 Thomas Tannenberger
简  介
  在一所普通的高中内,生活着一对“废柴”父子。父亲兰斯克?莱顿(罗宾?威廉姆斯Robin Williams 饰)渴望成为名利双收的畅销作家,然而书稿却无法逃脱退回的命运。他所教授的诗歌鉴赏课听者寥寥,虽然和同校的的艺术课女老师克莱尔?里德(阿丽克谢?吉尔莫 Alexie Gilmore 饰)谈恋爱,但恋情始终无法公开。兰斯的儿子凯尔性格孤僻古怪,这个正处在青春躁动期的男孩处处与父亲作对,每天惹是生非,性格内向的小男生安德鲁(Evan Martin 饰)是他唯一的朋友。凯尔对学习、音乐、电影全不感兴趣,唯有色情和手淫主宰着他的生活。                                    
                                在一次超high的自娱自乐后,凯尔魂飞极乐。兰斯克沉浸在极度的悲伤之中。然而,兰斯克代为捉刀的遗书却在校内引起巨大震撼,所有人都渴望了解凯尔,兰斯克的人生也开始发生转变……


影片参数
  1. ##### MediaInfo ######
  2. General
  3. Unique ID                                : 264882264321103341993507530879471616102 (0xC74677ECF30B3FEC2EB68E93DC768066)
  4. Complete name                            : Worlds.Greatest.Dad.2009.BluRay.1080p.DTS-HD.MA5.1.x265.10bit-BeiTai.mkv
  5. Format                                   : Matroska
  6. Format version                           : Version 4
  7. File size                                : 10.9 GiB
  8. Duration                                 : 1 h 38 min
  9. Overall bit rate mode                    : Variable
  10. Overall bit rate                         : 15.9 Mb/s
  11. Encoded date                             : UTC 2022-04-13 01:15:45
  12. Writing application                      : mkvmerge v49.0.0 (''Sick Of Losing Soulmates'') 64-bit
  13. Writing library                          : libebml v1.4.0 + libmatroska v1.6.1
  14. Video
  15. ID                                       : 1
  16. Format                                   : HEVC
  17. Format/Info                              : High Efficiency Video Coding
  18. Format profile                           : Main [email protected]@High
  19. Codec ID                                 : V_MPEGH/ISO/HEVC
  20. Duration                                 : 1 h 38 min
  21. Bit rate                                 : 12.2 Mb/s
  22. Width                                    : 1 920 pixels
  23. Height                                   : 1 038 pixels
  24. Display aspect ratio                     : 1.85:1
  25. Frame rate mode                          : Constant
  26. Frame rate                               : 23.976 (24000/1001/53875) FPS
  27. Color space                              : YUV
  28. Chroma subsampling                       : 4:2:0
  29. Bit depth                                : 10 bits
  30. Bits/(Pixel*Frame)                       : 0.255
  31. Stream size                              : 8.40 GiB (77%)
  32. Title                                    : HEVC, [email protected]@High, 24/1.001 fps @ 12193 kbps
  33. Writing library                          : x265 3.5+36-1f2c8da77:[Windows][GCC 11.2.0][64 bit] 10bit
  34. Encoding settings                        : cpuid=538751049583 / frame-threads=2 / numa-pools=4 / wpp / pmode / pme / no-psnr / no-ssim / log-level=2 / input-csp=1 / input-res=1920x1038 / interlace=0 / total-frames=141826 / level-idc=51 / high-tier=1 / uhd-bd=0 / ref=5 / no-allow-non-conformance / no-repeat-headers / annexb / no-aud / no-eob / no-eos / no-hrd / info / hash=0 / no-temporal-layers / open-gop / min-keyint=24 / keyint=240 / gop-lookahead=0 / bframes=6 / b-adapt=2 / b-pyramid / bframe-bias=0 / rc-lookahead=40 / lookahead-slices=0 / NTM4NzU=uuDQuD2mJt9fsCf / scenecut=40 / no-hist-scenecut / radl=0 / no-splice / no-intra-refresh / ctu=32 / min-cu-size=8 / no-rect / no-amp / max-tu-size=32 / tu-inter-depth=3 / tu-intra-depth=3 / limit-tu=4 / rdoq-level=2 / dynamic-rd=0.00 / no-ssim-rd / signhide / no-tskip / nr-intra=0 / nr-inter=0 / no-constrained-intra / no-strong-intra-smoothing / max-merge=4 / limit-refs=1 / limit-modes / me=3 / subme=4 / merange=25 / temporal-mvp / no-frame-dup / no-hme / weightp / weightb / no-analyze-src-pics / deblock=-3:-3 / no-sao / no-sao-non-deblock / rd=6 / selective-sao=0 / no-early-skip / rskip / no-fast-intra / no-tskip-fast / no-cu-lossless / b-intra / no-splitrd-skip / rdpenalty=0 / psy-rd=2.00 / psy-rdoq=1.00 / no-rd-refine / no-lossless / cbqpoffs=0 / crqpoffs=0 / rc=crf / crf=19.5 / qcomp=0.65 / qpstep=4 / stats-write=0 / stats-read=0 / vbv-maxrate=80000 / vbv-bufsize=80000 / vbv-init=0.9 / min-vbv-fullness=50.0 / max-vbv-fullness=80.0 / crf-max=0.0 / crf-min=0.0 / ipratio=1.40 / pbratio=1.30 / aq-mode=2 / aq-strength=0.85 / cutree / zone-count=0 / no-strict-cbr / qg-size=32 / no-rc-grain / qpmax=69 / qpmin=0 / no-const-vbv / sar=1 / overscan=0 / videoformat=5 / range=0 / colorprim=1 / transfer=1 / colormatrix=1 / chromaloc=0 / display-window=0 / cll=0,0 / min-luma=0 / max-luma=1023 / log2-max-poc-lsb=8 / vui-timing-info / vui-hrd-info / slices=1 / no-opt-qp-pps / no-opt-ref-list-length-pps / no-multi-pass-opt-rps / scenecut-bias=0.05 / hist-threshold=0.03 / no-opt-cu-delta-qp / no-aq-motion / no-hdr10 / no-hdr10-opt / no-dhdr10-opt / no-idr-recovery-sei / analysis-reuse-level=0 / analysis-save-reuse-level=0 / analysis-load-reuse-level=0 / scale-factor=0 / refine-intra=0 / refine-inter=0 / refine-mv=1 / refine-ctu-distortion=0 / no-limit-sao / ctu-info=0 / no-lowpass-dct / refine-analysis-type=0 / copy-pic=1 / max-ausize-factor=1.0 / no-dynamic-refine / no-single-sei / no-hevc-aq / no-svt / no-field / qp-adaptation-range=1.00 / scenecut-aware-qp=0conformance-window-offsets / right=0 / bottom=0 / NTM4NzU= / decoder-max-rate=0 / no-vbv-live-multi-pass
  35. Language                                 : English
  36. Default                                  : Yes
  37. Forced                                   : No
  38. Color range                              : Limited
  39. Color primaries                          : BT.709
  40. Transfer characteristics                 : BT.709
  41. Matrix coefficients                      : BT.709
  42. Audio
  43. ID                                       : 2
  44. Format                                   : DTS XLL
  45. Format/Info                              : Digital Theater Systems
  46. Commercial name                          : DTS-HD Master Audio
  47. Codec ID                                 : A_DTS
  48. Duration                                 : 1 h 38 min
  49. Bit rate mode                            : Variable
  50. Bit rate                                 : 3 597 kb/s
  51. Channel(s)                               : 6 channels
  52. Channel layout                           : C L R Ls Rs LFE
  53. Sampling rate                            : 48.0 kHz
  54. Frame rate                               : 93.750 FPS (512 SPF)
  55. Bit depth                                : 24 bits
  56. Compression mode                         : Lossless
  57. Stream size                              : 2.48 GiB (23%)
  58. Title                                    : English DTS-HD Master Audio 5.1 @ 3547 kbps
  59. Language                                 : English
  60. Default                                  : Yes
  61. Forced                                   : No
  62. Text #1
  63. ID                                       : 3
  64. Format                                   : PGS
  65. Codec ID                                 : S_HDMV/PGS
  66. Codec ID/Info                            : Picture based subtitle format used on BDs/HD-DVDs
  67. Duration                                 : 1 h 33 min
  68. Bit rate                                 : 55.7 kb/s
  69. Count of elements                        : 3492
  70. Stream size                              : 37.2 MiB (0%)
  71. Title                                    : Chs/SUP  简英双语
  72. Language                                 : Chinese
  73. Default                                  : Yes
  74. Forced                                   : No
  75. Text #2
  76. ID                                       : 4
  77. Format                                   : PGS
  78. Codec ID                                 : S_HDMV/PGS
  79. Codec ID/Info                            : Picture based subtitle format used on BDs/HD-DVDs
  80. Duration                                 : 1 h 33 min
  81. Bit rate                                 : 57.0 kb/s
  82. Count of elements                        : 3492
  83. Stream size                              : 38.0 MiB (0%)
  84. Title                                    : Cht/SUP  繁英双语
  85. Language                                 : Chinese
  86. Default                                  : No
  87. Forced                                   : No
  88. Menu
  89. 00:00:00.000                             : en:第 01 章
  90. 00:06:47.157                             : en:第 02 章
  91. 00:14:40.379                             : en:第 03 章
  92. 00:18:18.931                             : en:第 04 章
  93. 00:21:43.344                             : en:第 05 章
  94. 00:25:40.581                             : en:第 06 章
  95. 00:31:09.284                             : en:第 07 章
  96. 00:36:18.385                             : en:第 08 章
  97. 00:41:06.297                             : en:第 09 章
  98. 00:48:35.121                             : en:第 10 章
  99. 00:56:58.290                             : en:第 11 章
  100. 01:03:29.222                             : en:第 12 章
  101. 01:14:51.570                             : en:第 13 章
  102. 01:22:17.349                             : en:第 14 章
  103. 01:28:02.777                             : en:第 15 章
  104. 01:34:09.143                             : en:第 16 章
复制代码


世界上最伟大的父亲[简繁字幕].Worlds.Greatest.Dad.2009.BluRay.1080p.DTS-HD.MA5.1.x265.10bit-ALT 10.95 ...

世界上最伟大的父亲[简繁字幕].Worlds.Greatest.Dad.2009.BluRay.1080p.DTS-HD.MA5.1.x265.10bit-ALT 10.95 ...

世界上最伟大的父亲[简繁字幕].Worlds.Greatest.Dad.2009.BluRay.1080p.DTS-HD.MA5.1.x265.10bit-ALT 10.95 ...

世界上最伟大的父亲[简繁字幕].Worlds.Greatest.Dad.2009.BluRay.1080p.DTS-HD.MA5.1.x265.10bit-ALT 10.95 ...



蓝光高清网提示您 点击下方附件即可下载

世界上最伟大的父亲[简繁字幕].Worlds.Greatest.Dad.2009.BluRay.1080p.DTS-HD.MA5.1.x265.10bit-ALT 10.95GB

世界上最伟大的父亲[简繁字幕].Worlds.Greatest.Dad.2009.BluRay.1080p.DTS-HD.MA5.1.torrent ( 31.25 KB )

加入蓝光高清网VIP会员  无限制下载本站所有资源---点这里

资源下载、资源播放、字幕使用、无法下载等常见问题---点这里
回复

使用道具 举报

全部回复0 显示全部楼层

发表回复

您需要登录后才可以回帖 登录 | 立即注册

本版积分规则

楼主

超级版主

热门推荐

开通会员 帮助中心 返回顶部 返回列表