本站已运行

蓝光高清网

搜索

[动作] 血偿 Indemnity.2021.1080p.BluRay.x264.DTS-HD.MA.5.1-MT 10.47GB

蓝鸟 发表于 2022-5-4 08:03:27 | 显示全部楼层 |阅读模式

血偿 Indemnity.2021.1080p.BluRay.x264.DTS-HD.MA.5.1-MT 10.47GB

血偿 Indemnity.2021.1080p.BluRay.x264.DTS-HD.MA.5.1-MT 10.47GB


译  名 血偿 / 血债血偿 / 陷害
片  名 Indemnity
年  代 2021
产  地 美国
类  别 动作 / 惊悚
语  言 英语
上映日期 2021-08-11(幻想曲国际电影节)
演  员 安德烈·雅各布斯 Andre Jacobs

简  介

Theo Abrams is an ex-Cape Town fireman suffering from severe Post-Traumatic Stress Disorder. Unable to return to work due to the psychological trauma sustained during a failed rescue mission, an increasingly frustrated and volatile Theo''s world is rocked when one morning, he wakes up next to his wife''s murdered corpse with no recollection of what transpired and all evidence sug...


影片参数
  1. Video
  2. ID                                       : 1
  3. Format                                   : AVC
  4. Format/Info                              : Advanced Video Codec
  5. Format profile                           : [email protected]
  6. Format settings                          : CABAC / 5 Ref Frames
  7. Format settings, CABAC                   : Yes
  8. Format settings, Reference frames        : 5 frames
  9. Codec ID                                 : V_MPEG4/ISO/AVC
  10. Duration                                 : 2 h 4 min
  11. Bit rate                                 : 10.1 Mb/s
  12. Width                                    : 1 920 pixels
  13. Height                                   : 804 pixels
  14. Display aspect ratio                     : 2.40:1
  15. Frame rate mode                          : Constant
  16. Frame rate                               : 23.976 (24000/1001/189150) FPS
  17. Color space                              : YUV
  18. Chroma subsampling                       : 4:2:0
  19. Bit depth                                : 8 bits
  20. Scan type                                : Progressive
  21. Bits/(Pixel*Frame)                       : 0.272
  22. Stream size                              : 8.75 GiB (84%)
  23. Writing library                          : x264 core 157 r2938 2b00a84 [email protected] Mod
  24. Encoding settings                        : cabac=1 / ref=5 / deblock=1:-3:-3 / analyse=0x3:0x133 / me=umh / subme=10 / psy=1 / psy_rd=1.05:0.00 / mixed_ref=1 / me_range=32 / chroma_me=1 / trellis=2 / 8x8dct=1 / cqm=0 / deadzone=21,11 / fast_pskip=0 / chroma_qp_offset=-2 / threads=12 / lookahead_threads=2 / sliced_threads=0 / nr=0 / decimate=0 / interlaced=0 / bluray_compat=0 / constrained_intra=0 / bframes=8 / b_pyramid=2 / b_adapt=2 / b_bias=0 / direct=3 / weightb=1 / open_gop=0 / weightp=2 / keyint=250 / keyint_min=24 / scenecut=40 / intra_refresh=0 / rc_lookahead=250 / rc=crf / mbtree=0 / crf=16.8 / qcomp=0.60 / qpmin=0 / qpmax=69 / qpstep=4 / vbv_maxrate=62500 / vbv_bufsize=78125 / crf_max=0.0 / nal_hrd=none / filler=0 / ip_ratio=1.30 / pb_ratio=1.20 / aq=3:0.80
  25. Language                                 : English
  26. Default                                  : Yes
  27. Forced                                   : No
  28. Color range                              : Limited
  29. Color primaries                          : BT.709
  30. Matrix coefficients                      : BT.709
  31. Audio
  32. ID                                       : 2
  33. Format                                   : DTS XLL
  34. Format/Info                              : Digital Theater Systems
  35. Commercial name                          : DTS-HD Master Audio
  36. Codec ID                                 : A_DTS
  37. Duration                                 : 2 h 4 min
  38. Bit rate mode                            : Variable
  39. Bit rate                                 : 1 966 kb/s
  40. Channel(s)                               : 6 channels
  41. Channel layout                           : C L R Ls Rs LFE
  42. Sampling rate                            : 48.0 kHz
  43. Frame rate                               : 93.750 FPS (512 SPF)
  44. Bit depth                                : 16 bits
  45. Compression mode                         : Lossless
  46. Stream size                              : 1.71 GiB (16%)
  47. Language                                 : English
  48. Default                                  : Yes
  49. Forced                                   : No
  50. Text #1
  51. ID                                       : 3
  52. Format                                   : UTF-8
  53. Codec ID                                 : S_TEXT/UTF8
  54. Codec ID/Info                            : UTF-8 Plain Text
  55. Duration                                 : 1 h 54 min
  56. Bit rate                                 : 32 b/s
  57. Count of elements                        : 743
  58. Stream size                              : 27.2 KiB (0%)
  59. Language                                 : English
  60. Default                                  : Yes
  61. Forced                                   : No
  62. Text #2
  63. ID                                       : 4
  64. Format                                   : PGS
  65. Muxing mode                              : zlib
  66. Codec ID                                 : S_HDMV/PGS
  67. Codec ID/Info                            : Picture based subtitle format used on BDs/HD-DVDs
  68. Duration                                 : 1 h 54 min
  69. Bit rate                                 : 36.3 kb/s
  70. Count of elements                        : 1483
  71. Stream size                              : 29.7 MiB (0%)
  72. Language                                 : English
  73. Default                                  : No
  74. Forced                                   : No
  75. Menu
  76. 00:00:00.000                             : en:Chapter 01
  77. 00:09:38.578                             : en:Chapter 02
  78. 00:18:13.092                             : en:Chapter 03
  79. 00:26:08.567                             : en:Chapter 04
  80. 00:35:28.126                             : en:Chapter 05
  81. 00:42:42.560                             : en:Chapter 06
  82. 00:50:36.033                             : en:Chapter 07
  83. 00:56:15.372                             : en:Chapter 08
  84. 01:08:34.110                             : en:Chapter 09
  85. 01:14:34.470                             : en:Chapter 10
  86. 01:23:42.643                             : en:Chapter 11
  87. 01:31:22.477                             : en:Chapter 12
  88. 01:41:01.055                             : en:Chapter 13
  89. 01:50:37.631                             : en:Chapter 14
  90. 02:00:22.841                             : en:Chapter 15
复制代码

血偿 Indemnity.2021.1080p.BluRay.x264.DTS-HD.MA.5.1-MT 10.47GB

血偿 Indemnity.2021.1080p.BluRay.x264.DTS-HD.MA.5.1-MT 10.47GB



蓝光高清网提示您 点击下方附件即可下载

血偿 Indemnity.2021.1080p.BluRay.x264.DTS-HD.MA.5.1-MT 10.47GB

Indemnity.2021.1080p.BluRay.x264.DTS-HD.MA.5.1-MT.torrent ( 13.72 KB )

加入蓝光高清网VIP会员  无限制下载本站所有资源---点这里

资源下载、资源播放、字幕使用、无法下载等常见问题---点这里
回复

使用道具 举报

全部回复1 显示全部楼层
Romekfc手机认证 发表于 2022-5-5 05:14:33 | 显示全部楼层

感谢分享                 
回复 支持 反对

使用道具 举报

发表回复

您需要登录后才可以回帖 登录 | 立即注册

本版积分规则

开通会员 帮助中心 返回顶部 返回列表