本站已运行

蓝光高清网

搜索

[剧情片] 第六感 The.Sixth.Sense.1999.1080p.BluRay.REMUX.AVC.LPCM.5.1-FGT 21.73GB

蓝鸟 发表于 2022-5-5 10:37:02 | 显示全部楼层 |阅读模式

第六感 The.Sixth.Sense.1999.1080p.BluRay.REMUX.AVC.LPCM.5.1-FGT 21.73GB

第六感 The.Sixth.Sense.1999.1080p.BluRay.REMUX.AVC.LPCM.5.1-FGT 21.73GB


译  名 第六感 / 鬼眼(港) / 灵异第六感(台)
片  名 The Sixth Sense
年  代 1999
产  地 美国
类  别 剧情 / 悬疑 / 惊悚
语  言 英语 / 拉丁语 / 西班牙语
上映日期 1999-08-06(美国)
豆瓣评分 8.9/10 (502587人评价)
片  长 107分钟
导  演 M·奈特·沙马兰 M. Night Shyamalan
编  剧 M·奈特·沙马兰 M. Night Shyamalan
演  员 布鲁斯·威利斯 Bruce Willis
       海利·乔·奥斯蒙 Haley Joel Osment
       托妮·科莱特 Toni Collette
       奥莉维亚·威廉姆斯 Olivia Williams
       唐尼·沃尔伯格 Donnie Wahlberg
       特拉沃·摩根 Trevor Morgan
       彼得·安东尼·唐伯蒂斯 Peter Anthony Tambakis
       格伦·菲茨杰拉德 Glenn Fitzgerald
       米莎·巴顿 Mischa Barton
       法尔德斯·巴姆 Firdous Bamji
       杰弗里·泽布尼斯 Jeffrey Zubernis
       安吉丽卡·托恩 Angelica Torn
       莉萨·萨默乌 Lisa Summerour
       M·奈特·沙马兰 M. Night Shyamalan
       Bruce Norris Bruce Norris
       基斯沃文德 Keith Woulard
       凯瑟琳·肯尼迪 Kathleen Kennedy
       巴里·门德尔 Barry Mendel
       Sam Mercer Sam Mercer
       詹姆斯·纽顿·霍华德 James Newton Howard
       塔克·藤本 Tak Fujimoto
       安德鲁·蒙德谢恩 Andrew Mondshein
       艾薇·考夫曼 Avy Kaufman
       道格拉斯·A·莫瓦特 Douglas A. Mowat
       乔安娜·约翰斯顿 Joanna Johnston
       邦尼·帕克尔 Bunny Parker
       Gerald Quist Gerald Quist
       安德鲁·蒙德谢恩 Andrew Mondshein
       迪安·莱特 Dean Wright
       Stephen Lawes Stephen Lawes

简  介

麦克(布鲁斯·威利斯 饰)是著名儿童心理学家,却也有始终未能治愈的患者,甚至因此遭到枪击,这名少年随后也饮枪自毙。这给麦克带来很大心理阴影,一年后他找到另一个症状很像这名患者的男孩柯尔(海利·乔·奥斯蒙 饰),并耐心的做起了他的医生。柯尔并不容易接近,但麦克还是慢慢赢得 了他的信任,得知了柯尔的秘密。原来柯尔有着灵异的第六感,可以看到鬼魂。虽然这令人感到难以置信,但麦克在证实了事情的真相后还是帮助柯尔接受了这个事实。                                    
                                可是就在问题即将得到解决的时候,麦克却在柯尔的引导下,发现了一个更令人震惊的秘密……


获奖情况 (共14项)

第72届奥斯卡金像奖 (2000)
  最佳影片(提名)
  最佳导演(提名)
   └──M·奈特·沙马兰
  最佳男配角(提名)
   └──海利·乔·奥斯蒙
  最佳女配角(提名)
   └──托妮·科莱特
  最佳原创剧本(提名)
   └──M·奈特·沙马兰
  最佳剪辑(提名)
   └──安德鲁·蒙德谢恩
  第56届戛纳电影节 (2003)
  DVD Design Award
  第57届金球奖 (2000)
  电影类 最佳男配角(提名)
   └──海利·乔·奥斯蒙
  电影类 最佳编剧(提名)
   └──M·奈特·沙马兰
  第53届英国电影学院奖 (2000)
  电影奖 最佳影片(提名)
  电影奖 最佳导演(提名)
   └──M·奈特·沙马兰
  电影奖 最佳原创剧本(提名)
   └──M·奈特·沙马兰
  电影奖 最佳剪辑(提名)
   └──安德鲁·蒙德谢恩
  第23届日本电影学院奖 (2000)
  最佳外语片


影片参数
  1. Video
  2. ID                                       : 1
  3. ID in the original source medium         : 4113 (0x1011)
  4. Format                                   : AVC
  5. Format/Info                              : Advanced Video Codec
  6. Format profile                           : [email protected]
  7. Format settings                          : CABAC / 3 Ref Frames
  8. Format settings, CABAC                   : Yes
  9. Format settings, Reference frames        : 3 frames
  10. Codec ID                                 : V_MPEG4/ISO/AVC
  11. Duration                                 : 1 h 47 min
  12. Bit rate mode                            : Variable
  13. Bit rate                                 : 22.9 Mb/s
  14. Maximum bit rate                         : 40.0 Mb/s
  15. Width                                    : 1 920 pixels
  16. Height                                   : 1 080 pixels
  17. Display aspect ratio                     : 16:9
  18. Frame rate mode                          : Constant
  19. Frame rate                               : 23.976 (24000/1001/189150) FPS
  20. Standard                                 : NTSC
  21. Color space                              : YUV
  22. Chroma subsampling                       : 4:2:0
  23. Bit depth                                : 8 bits
  24. Scan type                                : Progressive
  25. Bits/(Pixel*Frame)                       : 0.460
  26. Stream size                              : 17.1 GiB (79%)
  27. Language                                 : English
  28. Default                                  : No
  29. Forced                                   : No
  30. Color range                              : Limited
  31. Original source medium                   : Blu-ray
  32. Audio #1
  33. ID                                       : 2
  34. ID in the original source medium         : 4352 (0x1100)
  35. Format                                   : PCM
  36. Format settings                          : Little / Signed
  37. Codec ID                                 : A_MS/ACM / 00000001-0000-0010-8000-00AA00389B71
  38. Duration                                 : 1 h 47 min
  39. Bit rate mode                            : Constant
  40. Bit rate                                 : 4 608 kb/s / 4 608 kb/s
  41. Channel(s)                               : 6 channels
  42. Channel layout                           : L R C LFE Ls Rs
  43. Sampling rate                            : 48.0 kHz
  44. Frame rate                               : 30.000 FPS (1600 SPF)
  45. Bit depth                                : 16 bits
  46. Stream size                              : 3.46 GiB (16%)
  47. Title                                    : LPCM 5.1
  48. Language                                 : English
  49. Default                                  : Yes
  50. Forced                                   : No
  51. Original source medium                   : Blu-ray
  52. Audio #2
  53. ID                                       : 3
  54. ID in the original source medium         : 4353 (0x1101)
  55. Format                                   : AC-3
  56. Format/Info                              : Audio Coding 3
  57. Commercial name                          : Dolby Digital
  58. Codec ID                                 : A_AC3
  59. Duration                                 : 1 h 47 min
  60. Bit rate mode                            : Constant
  61. Bit rate                                 : 640 kb/s
  62. Channel(s)                               : 6 channels
  63. Channel layout                           : L R C LFE Ls Rs
  64. Sampling rate                            : 48.0 kHz
  65. Frame rate                               : 31.250 FPS (1536 SPF)
  66. Compression mode                         : Lossy
  67. Stream size                              : 492 MiB (2%)
  68. Title                                    : DD 5.1
  69. Language                                 : English
  70. Service kind                             : Complete Main
  71. Default                                  : No
  72. Forced                                   : No
  73. Original source medium                   : Blu-ray
  74. Audio #3
  75. ID                                       : 4
  76. ID in the original source medium         : 4354 (0x1102)
  77. Format                                   : AC-3
  78. Format/Info                              : Audio Coding 3
  79. Commercial name                          : Dolby Digital
  80. Codec ID                                 : A_AC3
  81. Duration                                 : 1 h 47 min
  82. Bit rate mode                            : Constant
  83. Bit rate                                 : 640 kb/s
  84. Channel(s)                               : 6 channels
  85. Channel layout                           : L R C LFE Ls Rs
  86. Sampling rate                            : 48.0 kHz
  87. Frame rate                               : 31.250 FPS (1536 SPF)
  88. Compression mode                         : Lossy
  89. Stream size                              : 492 MiB (2%)
  90. Title                                    : DD 5.1
  91. Language                                 : French
  92. Service kind                             : Complete Main
  93. Default                                  : No
  94. Forced                                   : No
  95. Original source medium                   : Blu-ray
  96. Audio #4
  97. ID                                       : 5
  98. ID in the original source medium         : 4355 (0x1103)
  99. Format                                   : AC-3
  100. Format/Info                              : Audio Coding 3
  101. Commercial name                          : Dolby Digital
  102. Format settings                          : Dolby Surround
  103. Codec ID                                 : A_AC3
  104. Duration                                 : 1 h 47 min
  105. Bit rate mode                            : Constant
  106. Bit rate                                 : 192 kb/s
  107. Channel(s)                               : 2 channels
  108. Channel layout                           : L R
  109. Sampling rate                            : 48.0 kHz
  110. Frame rate                               : 31.250 FPS (1536 SPF)
  111. Compression mode                         : Lossy
  112. Stream size                              : 147 MiB (1%)
  113. Title                                    : DD 2.0
  114. Language                                 : Spanish
  115. Service kind                             : Complete Main
  116. Default                                  : No
  117. Forced                                   : No
  118. Original source medium                   : Blu-ray
  119. Text #1
  120. ID                                       : 6
  121. Format                                   : UTF-8
  122. Codec ID                                 : S_TEXT/UTF8
  123. Codec ID/Info                            : UTF-8 Plain Text
  124. Duration                                 : 1 h 42 min
  125. Bit rate                                 : 36 b/s
  126. Count of elements                        : 877
  127. Stream size                              : 27.2 KiB (0%)
  128. Language                                 : English
  129. Default                                  : Yes
  130. Forced                                   : No
  131. Text #2
  132. ID                                       : 7
  133. Format                                   : UTF-8
  134. Codec ID                                 : S_TEXT/UTF8
  135. Codec ID/Info                            : UTF-8 Plain Text
  136. Duration                                 : 1 h 43 min
  137. Bit rate                                 : 39 b/s
  138. Count of elements                        : 992
  139. Stream size                              : 29.8 KiB (0%)
  140. Title                                    : SDH
  141. Language                                 : English
  142. Default                                  : No
  143. Forced                                   : No
  144. Text #3
  145. ID                                       : 8
  146. ID in the original source medium         : 4608 (0x1200)
  147. Format                                   : PGS
  148. Muxing mode                              : zlib
  149. Codec ID                                 : S_HDMV/PGS
  150. Codec ID/Info                            : Picture based subtitle format used on BDs/HD-DVDs
  151. Duration                                 : 1 h 43 min
  152. Bit rate                                 : 16.9 kb/s
  153. Count of elements                        : 2096
  154. Stream size                              : 12.5 MiB (0%)
  155. Language                                 : English
  156. Default                                  : No
  157. Forced                                   : No
  158. Original source medium                   : Blu-ray
  159. Text #4
  160. ID                                       : 9
  161. ID in the original source medium         : 4609 (0x1201)
  162. Format                                   : PGS
  163. Muxing mode                              : zlib
  164. Codec ID                                 : S_HDMV/PGS
  165. Codec ID/Info                            : Picture based subtitle format used on BDs/HD-DVDs
  166. Duration                                 : 1 h 40 min
  167. Bit rate                                 : 13.9 kb/s
  168. Count of elements                        : 1636
  169. Stream size                              : 10.0 MiB (0%)
  170. Language                                 : French
  171. Default                                  : No
  172. Forced                                   : No
  173. Original source medium                   : Blu-ray
  174. Text #5
  175. ID                                       : 10
  176. ID in the original source medium         : 4610 (0x1202)
  177. Format                                   : PGS
  178. Muxing mode                              : zlib
  179. Codec ID                                 : S_HDMV/PGS
  180. Codec ID/Info                            : Picture based subtitle format used on BDs/HD-DVDs
  181. Duration                                 : 1 h 40 min
  182. Bit rate                                 : 15.7 kb/s
  183. Count of elements                        : 1718
  184. Stream size                              : 11.3 MiB (0%)
  185. Language                                 : Spanish
  186. Default                                  : No
  187. Forced                                   : No
  188. Original source medium                   : Blu-ray
  189. Text #6
  190. ID                                       : 11
  191. ID in the original source medium         : 4611 (0x1203)
  192. Format                                   : PGS
  193. Muxing mode                              : zlib
  194. Codec ID                                 : S_HDMV/PGS
  195. Codec ID/Info                            : Picture based subtitle format used on BDs/HD-DVDs
  196. Duration                                 : 1 h 37 min
  197. Bit rate                                 : 11.9 kb/s
  198. Count of elements                        : 1506
  199. Stream size                              : 8.33 MiB (0%)
  200. Language                                 : Dutch
  201. Default                                  : No
  202. Forced                                   : No
  203. Original source medium                   : Blu-ray
  204. Text #7
  205. ID                                       : 12
  206. ID in the original source medium         : 4612 (0x1204)
  207. Format                                   : PGS
  208. Muxing mode                              : zlib
  209. Codec ID                                 : S_HDMV/PGS
  210. Codec ID/Info                            : Picture based subtitle format used on BDs/HD-DVDs
  211. Duration                                 : 9 min 48 s
  212. Bit rate                                 : 368 b/s
  213. Count of elements                        : 6
  214. Stream size                              : 26.5 KiB (0%)
  215. Language                                 : French
  216. Default                                  : No
  217. Forced                                   : No
  218. Original source medium                   : Blu-ray
  219. Text #8
  220. ID                                       : 13
  221. ID in the original source medium         : 4613 (0x1205)
  222. Format                                   : PGS
  223. Muxing mode                              : zlib
  224. Codec ID                                 : S_HDMV/PGS
  225. Codec ID/Info                            : Picture based subtitle format used on BDs/HD-DVDs
  226. Duration                                 : 1 h 8 min
  227. Bit rate                                 : 144 b/s
  228. Count of elements                        : 12
  229. Stream size                              : 72.6 KiB (0%)
  230. Language                                 : Spanish
  231. Default                                  : No
  232. Forced                                   : No
  233. Original source medium                   : Blu-ray
  234. Menu
  235. 00:00:00.000                             : en:Chapter 01
  236. 00:02:50.920                             : en:Chapter 02
  237. 00:12:23.075                             : en:Chapter 03
  238. 00:17:15.701                             : en:Chapter 04
  239. 00:20:18.300                             : en:Chapter 05
  240. 00:26:15.407                             : en:Chapter 06
  241. 00:32:20.229                             : en:Chapter 07
  242. 00:34:28.691                             : en:Chapter 08
  243. 00:41:27.776                             : en:Chapter 09
  244. 00:46:20.444                             : en:Chapter 10
  245. 00:54:05.283                             : en:Chapter 11
  246. 01:00:41.596                             : en:Chapter 12
  247. 01:07:41.057                             : en:Chapter 13
  248. 01:09:06.976                             : en:Chapter 14
  249. 01:15:46.458                             : en:Chapter 15
  250. 01:27:06.221                             : en:Chapter 16
  251. 01:31:06.043                             : en:Chapter 17
  252. 01:36:15.811                             : en:Chapter 18
  253. 01:42:17.464                             : en:Chapter 19
复制代码



蓝光高清网提示您 点击下方附件即可下载

第六感 The.Sixth.Sense.1999.1080p.BluRay.REMUX.AVC.LPCM.5.1-FGT 21.73GB

The.Sixth.Sense.1999.1080p.BluRay.REMUX.AVC.LPCM.5.1-FGT.torrent ( 27.8 KB )

加入蓝光高清网VIP会员  无限制下载本站所有资源---点这里

资源下载、资源播放、字幕使用、无法下载等常见问题---点这里
回复

使用道具 举报

全部回复0 显示全部楼层

发表回复

您需要登录后才可以回帖 登录 | 立即注册

本版积分规则

楼主

超级版主

热门推荐

开通会员 帮助中心 返回顶部 返回列表