本站已运行

蓝光高清网

搜索

[剧情片] 纽伦堡的审判 Judgment.at.Nuremberg.1961.1080p.BluRay.REMUX.AVC.DTS-HD.MA.5.1-FGT 37.88GB

蓝鸟 发表于 2022-5-5 10:38:16 | 显示全部楼层 |阅读模式

纽伦堡的审判 Judgment.at.Nuremberg.1961.1080p.BluRay.REMUX.AVC.DTS-HD.MA.5.1-FGT 37.88GB

纽伦堡的审判 Judgment.at.Nuremberg.1961.1080p.BluRay.REMUX.AVC.DTS-HD.MA.5.1-FGT 37.88GB


译  名 纽伦堡的审判 / 纽伦堡大审判 / 劫后升平
片  名 Judgment at Nuremberg
年  代 1961
产  地 美国
类  别 剧情 / 历史
语  言 英语 / 德语
上映日期 1961-12-14
豆瓣评分 9.1/10 (7010人评价)
片  长 179分钟
导  演 斯坦利·克雷默 Stanley Kramer
编  剧 阿比·曼 Abby Mann
演  员 斯宾塞·屈塞 Spencer Tracy
       伯特·兰卡斯特 Burt Lancaster
       理查德·威德马克 Richard Widmark
       玛琳·黛德丽 Marlene Dietrich
       马克西米连·谢尔 Maximilian Schell
       朱迪·加兰 Judy Garland
       蒙哥马利·克利夫特 Montgomery Clift
       维尔纳·克伦佩雷尔 Werner Klemperer
       雷·蒂尔 Ray Teal
       卡尔·斯温森 Karl Swenson
       肯尼斯·麦克纳 Kenneth MacKenna
       嘉娜·泰勒 Jana Taylor
       威廉·夏特纳 William Shatner
       儒道夫·斯特纳德 Rudolph Sternad
       乔治·米洛 George Milo
       让·路易 Jean Louis

简  介

讲述二战后在纽伦堡提审德国纳粹计划的法律关系者,三个被告提审的原因是给犹太人施行断种手术。担任主审判长的是美国人赫鲁特,他主张其中两个被告无罪;而德国司法部长亚林克竟对此事保持沉默,但检查官罗森上校却激烈的指责被告,因此三个人展开激烈的辩论。审讯继续进行下去。而美国的高级官员们希望能在审判中获提德国所犯罪行的良好证明,因此对审判施以极大的压力,但赫鲁特坚守法律的正义立场,给予了最公正的判决。在宣布判决结果时,只有亚林对赫鲁特审判长的态度表示赞赏。


获奖情况 (共17项)

第34届奥斯卡金像奖 (1962)
  最佳影片(提名)
   └──斯坦利·克雷默
  最佳导演(提名)
   └──斯坦利·克雷默
  最佳男主角
   └──马克西米连·谢尔
  最佳男主角(提名)
   └──斯宾塞·屈塞
  最佳男配角(提名)
   └──蒙哥马利·克利夫特
  最佳女配角(提名)
   └──朱迪·加兰
  最佳改编剧本
   └──阿比·曼
  黑白片最佳摄影(提名)
   └──厄内斯特`拉斯洛
  最佳剪辑(提名)
   └──弗雷德里克·努德森
  黑白片最佳艺术指导和布景(提名)
  黑白片最佳服装设计(提名)
   └──让·路易
  第19届金球奖 (1962)
  电影类 最佳剧情片(提名)
  电影类 最佳导演
   └──斯坦利·克雷默
  电影类 剧情片最佳男主角
   └──马克西米连·谢尔
  电影类 最佳男配角(提名)
   └──蒙哥马利·克利夫特
  电影类 最佳女配角(提名)
   └──朱迪·加兰
  电影类 最佳促进国际了解电影(提名)


影片参数
  1. Video
  2. ID                                       : 1
  3. ID in the original source medium         : 4113 (0x1011)
  4. Format                                   : AVC
  5. Format/Info                              : Advanced Video Codec
  6. Format profile                           : [email protected]
  7. Format settings                          : CABAC / 4 Ref Frames
  8. Format settings, CABAC                   : Yes
  9. Format settings, Reference frames        : 4 frames
  10. Codec ID                                 : V_MPEG4/ISO/AVC
  11. Duration                                 : 2 h 59 min
  12. Bit rate mode                            : Variable
  13. Bit rate                                 : 23.9 Mb/s
  14. Maximum bit rate                         : 37.0 Mb/s
  15. Width                                    : 1 920 pixels
  16. Height                                   : 1 080 pixels
  17. Display aspect ratio                     : 16:9
  18. Frame rate mode                          : Constant
  19. Frame rate                               : 23.976 (24000/1001/189150) FPS
  20. Color space                              : YUV
  21. Chroma subsampling                       : 4:2:0
  22. Bit depth                                : 8 bits
  23. Scan type                                : Progressive
  24. Bits/(Pixel*Frame)                       : 0.481
  25. Stream size                              : 29.9 GiB (79%)
  26. Language                                 : English
  27. Default                                  : No
  28. Forced                                   : No
  29. Original source medium                   : Blu-ray
  30. Audio #1
  31. ID                                       : 2
  32. ID in the original source medium         : 4353 (0x1101)
  33. Format                                   : DTS XLL
  34. Format/Info                              : Digital Theater Systems
  35. Commercial name                          : DTS-HD Master Audio
  36. Codec ID                                 : A_DTS
  37. Duration                                 : 2 h 59 min
  38. Bit rate mode                            : Variable
  39. Bit rate                                 : 3 654 kb/s
  40. Channel(s)                               : 6 channels
  41. Channel layout                           : C L R Ls Rs LFE
  42. Sampling rate                            : 48.0 kHz
  43. Frame rate                               : 93.750 FPS (512 SPF)
  44. Bit depth                                : 24 bits
  45. Compression mode                         : Lossless
  46. Stream size                              : 4.57 GiB (12%)
  47. Title                                    : DTS-HD MA 5.1
  48. Language                                 : English
  49. Default                                  : Yes
  50. Forced                                   : No
  51. Original source medium                   : Blu-ray
  52. Audio #2
  53. ID                                       : 3
  54. ID in the original source medium         : 4352 (0x1100)
  55. Format                                   : PCM
  56. Format settings                          : Little / Signed
  57. Codec ID                                 : A_PCM/INT/LIT
  58. Duration                                 : 2 h 59 min
  59. Bit rate mode                            : Constant
  60. Bit rate                                 : 2 304 kb/s
  61. Channel(s)                               : 2 channels
  62. Sampling rate                            : 48.0 kHz
  63. Frame rate                               : 30.000 FPS (1600 SPF)
  64. Bit depth                                : 24 bits
  65. Stream size                              : 2.88 GiB (8%)
  66. Title                                    : LPCM 2.0
  67. Language                                 : English
  68. Default                                  : No
  69. Forced                                   : No
  70. Original source medium                   : Blu-ray
  71. Audio #3
  72. ID                                       : 4
  73. ID in the original source medium         : 4354 (0x1102)
  74. Format                                   : AC-3
  75. Format/Info                              : Audio Coding 3
  76. Commercial name                          : Dolby Digital
  77. Codec ID                                 : A_AC3
  78. Duration                                 : 2 h 59 min
  79. Bit rate mode                            : Constant
  80. Bit rate                                 : 192 kb/s
  81. Channel(s)                               : 2 channels
  82. Channel layout                           : L R
  83. Sampling rate                            : 48.0 kHz
  84. Frame rate                               : 31.250 FPS (1536 SPF)
  85. Compression mode                         : Lossy
  86. Stream size                              : 246 MiB (1%)
  87. Title                                    : DD 2.0
  88. Language                                 : English
  89. Service kind                             : Commentary
  90. Default                                  : No
  91. Forced                                   : No
  92. Original source medium                   : Blu-ray
  93. Audio #4
  94. ID                                       : 5
  95. ID in the original source medium         : 4355 (0x1103)
  96. Format                                   : AC-3
  97. Format/Info                              : Audio Coding 3
  98. Commercial name                          : Dolby Digital
  99. Codec ID                                 : A_AC3
  100. Duration                                 : 2 h 59 min
  101. Bit rate mode                            : Constant
  102. Bit rate                                 : 192 kb/s
  103. Channel(s)                               : 2 channels
  104. Channel layout                           : L R
  105. Sampling rate                            : 48.0 kHz
  106. Frame rate                               : 31.250 FPS (1536 SPF)
  107. Compression mode                         : Lossy
  108. Stream size                              : 246 MiB (1%)
  109. Title                                    : DD 2.0
  110. Language                                 : English
  111. Service kind                             : Complete Main
  112. Default                                  : No
  113. Forced                                   : No
  114. Original source medium                   : Blu-ray
  115. Text #1
  116. ID                                       : 6
  117. Format                                   : UTF-8
  118. Codec ID                                 : S_TEXT/UTF8
  119. Codec ID/Info                            : UTF-8 Plain Text
  120. Duration                                 : 2 h 58 min
  121. Bit rate                                 : 71 b/s
  122. Count of elements                        : 2339
  123. Stream size                              : 92.9 KiB (0%)
  124. Language                                 : English
  125. Default                                  : Yes
  126. Forced                                   : No
  127. Text #2
  128. ID                                       : 7
  129. Format                                   : UTF-8
  130. Codec ID                                 : S_TEXT/UTF8
  131. Codec ID/Info                            : UTF-8 Plain Text
  132. Duration                                 : 2 h 58 min
  133. Bit rate                                 : 71 b/s
  134. Count of elements                        : 2362
  135. Stream size                              : 93.4 KiB (0%)
  136. Title                                    : SDH
  137. Language                                 : English
  138. Default                                  : No
  139. Forced                                   : No
  140. Text #3
  141. ID                                       : 8
  142. ID in the original source medium         : 4608 (0x1200)
  143. Format                                   : PGS
  144. Muxing mode                              : zlib
  145. Codec ID                                 : S_HDMV/PGS
  146. Codec ID/Info                            : Picture based subtitle format used on BDs/HD-DVDs
  147. Duration                                 : 2 h 58 min
  148. Bit rate                                 : 38.3 kb/s
  149. Count of elements                        : 4744
  150. Stream size                              : 49.0 MiB (0%)
  151. Language                                 : English
  152. Default                                  : No
  153. Forced                                   : No
  154. Original source medium                   : Blu-ray
  155. Menu
  156. 00:00:00.000                             : en:Chapter 01
  157. 00:06:50.493                             : en:Chapter 02
  158. 00:16:10.344                             : en:Chapter 03
  159. 00:21:01.510                             : en:Chapter 04
  160. 00:25:04.127                             : en:Chapter 05
  161. 00:31:38.104                             : en:Chapter 06
  162. 00:35:46.519                             : en:Chapter 07
  163. 00:40:32.138                             : en:Chapter 08
  164. 00:44:24.119                             : en:Chapter 09
  165. 00:48:25.193                             : en:Chapter 10
  166. 00:53:51.603                             : en:Chapter 11
  167. 01:00:40.762                             : en:Chapter 12
  168. 01:07:20.661                             : en:Chapter 13
  169. 01:13:53.387                             : en:Chapter 14
  170. 01:20:53.390                             : en:Chapter 15
  171. 01:32:16.113                             : en:Chapter 16
  172. 01:51:31.601                             : en:Chapter 17
  173. 01:58:45.451                             : en:Chapter 18
  174. 02:14:05.162                             : en:Chapter 19
  175. 02:30:38.904                             : en:Chapter 20
  176. 02:42:45.672                             : en:Chapter 21
  177. 02:52:06.232                             : en:Chapter 22
复制代码



蓝光高清网提示您 点击下方附件即可下载

纽伦堡的审判 Judgment.at.Nuremberg.1961.1080p.BluRay.REMUX.AVC.DTS-HD.MA.5.1-FGT 37.88GB

Judgment.at.Nuremberg.1961.1080p.BluRay.REMUX.AVC.DTS-HD.MA.5.1-FGT.torrent ( 48.01 KB )

加入蓝光高清网VIP会员  无限制下载本站所有资源---点这里

资源下载、资源播放、字幕使用、无法下载等常见问题---点这里
回复

使用道具 举报

全部回复0 显示全部楼层

发表回复

您需要登录后才可以回帖 登录 | 立即注册

本版积分规则

楼主

超级版主

热门推荐

开通会员 帮助中心 返回顶部 返回列表