本站已运行

蓝光高清网

搜索

[剧情片] 巨蟒 Megaboa.2021.1080p.BluRay.REMUX.AVC.DTS-HD.MA.5.1-FGT 16.07GB

蓝鸟 发表于 2022-5-5 10:40:35 | 显示全部楼层 |阅读模式

巨蟒 Megaboa.2021.1080p.BluRay.REMUX.AVC.DTS-HD.MA.5.1-FGT 16.07GB

巨蟒 Megaboa.2021.1080p.BluRay.REMUX.AVC.DTS-HD.MA.5.1-FGT 16.07GB


译  名 巨蟒 / 狂暴巨蟒
片  名 MegaBoa
年  代 2021
产  地 美国
类  别 剧情 / 动作
语  言 英语
上映日期 2021-11-26(美国)
片  长 100分钟
导  演  Mario N. Bonassin
演  员 何塞·埃雷拉 Jose Herrera
       韦斯·布朗 Wes Brown

简  介

在蜿蜒流长的亚马逊河流域的雨林深处,传说和秘密让雨林之外的人们振奋不已。在哥伦比亚的一次旅行中,一群大学生前往山区寻找洞穴绘画。没有想到恶梦却就此展开!未过多久,接连有人死亡。人们终于开始意识到此地的危险性他们的前方出现可以的滑行痕迹。一只一度被认为已经灭绝的50英尺长的巨蟒却潜伏在灌木丛中,渴望鲜血。它的鳞片比盔甲还要坚硬,视力范围是一般蛇的9倍,最骇人听闻的是有如无底洞的胃。这群大学生开始只能拼命的逃跑,但是无奈手无寸铁。根本没有能力抵抗。不过最终他们还是发现了蟒蛇的弱点,大家合力设计了一个陷阱,消灭了蟒蛇。


影片参数
  1. Video
  2. ID                                       : 1
  3. ID in the original source medium         : 4113 (0x1011)
  4. Format                                   : AVC
  5. Format/Info                              : Advanced Video Codec
  6. Format profile                           : [email protected]
  7. Format settings                          : CABAC / 4 Ref Frames
  8. Format settings, CABAC                   : Yes
  9. Format settings, Reference frames        : 4 frames
  10. Codec ID                                 : V_MPEG4/ISO/AVC
  11. Duration                                 : 1 h 25 min
  12. Bit rate mode                            : Variable
  13. Bit rate                                 : 25.0 Mb/s
  14. Maximum bit rate                         : 35.0 Mb/s
  15. Width                                    : 1 920 pixels
  16. Height                                   : 1 080 pixels
  17. Display aspect ratio                     : 16:9
  18. Frame rate mode                          : Constant
  19. Frame rate                               : 23.976 (24000/1001/189150) FPS
  20. Standard                                 : Component
  21. Color space                              : YUV
  22. Chroma subsampling                       : 4:2:0
  23. Bit depth                                : 8 bits
  24. Scan type                                : Progressive
  25. Bits/(Pixel*Frame)                       : 0.503
  26. Stream size                              : 14.8 GiB (92%)
  27. Writing library                          : x264 core 155
  28. Encoding settings                        : cabac=1 / ref=4 / deblock=1:0:0 / analyse=0x3:0x133 / me=umh / subme=9 / psy=1 / psy_rd=1.00:0.00 / mixed_ref=1 / me_range=16 / chroma_me=1 / trellis=2 / 8x8dct=1 / cqm=1 / deadzone=21,11 / fast_pskip=1 / chroma_qp_offset=-2 / threads=24 / lookahead_threads=2 / sliced_threads=0 / slices=4 / nr=0 / decimate=1 / interlaced=0 / minigop=1 / stitchable=1 / constrained_intra=0 / bframes=3 / b_pyramid=0 / b_adapt=2 / b_bias=0 / direct=3 / weightb=1 / open_gop=1 / weightp=1 / keyint=24 / keyint_min=1 / scenecut=40 / intra_refresh=0 / rc_lookahead=24 / rc=2pass / mbtree=1 / bitrate=25000 / ratetol=1.0 / qcomp=0.60 / qpmin=3 / qpmax=69 / qpstep=4 / cplxblur=20.0 / qblur=0.5 / vbv_maxrate=35000 / vbv_bufsize=30000 / nal_hrd=vbr / filler=0 / ip_ratio=1.40 / aq=1:1.00
  29. Language                                 : English
  30. Default                                  : No
  31. Forced                                   : No
  32. Color range                              : Limited
  33. Color primaries                          : BT.709
  34. Transfer characteristics                 : BT.709
  35. Matrix coefficients                      : BT.709
  36. Original source medium                   : Blu-ray
  37. Audio
  38. ID                                       : 2
  39. ID in the original source medium         : 4353 (0x1101)
  40. Format                                   : DTS XLL
  41. Format/Info                              : Digital Theater Systems
  42. Commercial name                          : DTS-HD Master Audio
  43. Codec ID                                 : A_DTS
  44. Duration                                 : 1 h 25 min
  45. Bit rate mode                            : Variable
  46. Bit rate                                 : 2 091 kb/s
  47. Channel(s)                               : 6 channels
  48. Channel layout                           : C L R Ls Rs LFE
  49. Sampling rate                            : 48.0 kHz
  50. Frame rate                               : 93.750 FPS (512 SPF)
  51. Bit depth                                : 16 bits
  52. Compression mode                         : Lossless
  53. Stream size                              : 1.24 GiB (8%)
  54. Title                                    : DTS-HD MA 5.1
  55. Language                                 : English
  56. Default                                  : Yes
  57. Forced                                   : No
  58. Original source medium                   : Blu-ray
  59. Text #1
  60. ID                                       : 3
  61. Format                                   : UTF-8
  62. Codec ID                                 : S_TEXT/UTF8
  63. Codec ID/Info                            : UTF-8 Plain Text
  64. Duration                                 : 1 h 13 min
  65. Bit rate                                 : 0 b/s
  66. Count of elements                        : 19
  67. Stream size                              : 299 Bytes (0%)
  68. Title                                    : FORCED
  69. Language                                 : English
  70. Default                                  : No
  71. Forced                                   : Yes
  72. Text #2
  73. ID                                       : 4
  74. Format                                   : UTF-8
  75. Codec ID                                 : S_TEXT/UTF8
  76. Codec ID/Info                            : UTF-8 Plain Text
  77. Duration                                 : 1 h 20 min
  78. Bit rate                                 : 57 b/s
  79. Count of elements                        : 1282
  80. Stream size                              : 34.2 KiB (0%)
  81. Language                                 : English
  82. Default                                  : Yes
  83. Forced                                   : No
  84. Text #3
  85. ID                                       : 5
  86. ID in the original source medium         : 4609 (0x1201)
  87. Format                                   : PGS
  88. Muxing mode                              : zlib
  89. Codec ID                                 : S_HDMV/PGS
  90. Codec ID/Info                            : Picture based subtitle format used on BDs/HD-DVDs
  91. Duration                                 : 1 h 13 min
  92. Bit rate                                 : 246 b/s
  93. Count of elements                        : 38
  94. Stream size                              : 133 KiB (0%)
  95. Language                                 : English
  96. Default                                  : No
  97. Forced                                   : No
  98. Original source medium                   : Blu-ray
  99. Menu
  100. 00:00:00.000                             : de:Chapter 01
  101. 00:14:12.518                             : de:Chapter 02
  102. 00:23:08.595                             : de:Chapter 03
  103. 00:34:40.953                             : de:Chapter 04
  104. 00:50:04.668                             : de:Chapter 05
  105. 00:57:32.991                             : de:Chapter 06
  106. 01:08:38.572                             : de:Chapter 07
  107. 01:16:41.346                             : de:Chapter 08
复制代码



蓝光高清网提示您 点击下方附件即可下载

巨蟒 Megaboa.2021.1080p.BluRay.REMUX.AVC.DTS-HD.MA.5.1-FGT 16.07GB

Megaboa.2021.1080p.BluRay.REMUX.AVC.DTS-HD.MA.5.1-FGT.torrent ( 20.72 KB )

加入蓝光高清网VIP会员  无限制下载本站所有资源---点这里

资源下载、资源播放、字幕使用、无法下载等常见问题---点这里
回复

使用道具 举报

全部回复0 显示全部楼层

发表回复

您需要登录后才可以回帖 登录 | 立即注册

本版积分规则

开通会员 帮助中心 返回顶部 返回列表