本站已运行

蓝光高清网

搜索

[剧情] 大破贩毒党 Johnny.Stool.Pigeon.1949.1080p.BluRay.x264.FLAC.2.0-HANDJOB 5.56GB

蓝鸟 发表于 2022-5-5 10:48:26 | 显示全部楼层 |阅读模式

大破贩毒党 Johnny.Stool.Pigeon.1949.1080p.BluRay.x264.FLAC.2.0-HANDJOB 5.56GB

大破贩毒党 Johnny.Stool.Pigeon.1949.1080p.BluRay.x264.FLAC.2.0-HANDJOB 5.56GB


译  名 大破贩毒党
片  名 Johnny Stool Pigeon
年  代 1949
产  地 美国
类  别 剧情 / 犯罪 / 黑色电影
语  言 英语
上映日期 1949-09-22
片  长 76 分钟
导  演 威廉·卡斯尔 William Castle
编  剧 Robert L. Richards Robert L. Richards
演  员 托尼·柯蒂斯 Tony Curtis
       谢利·温特斯 Shelley Winters
       丹·德亚 Dan Duryea
       霍华德·达夫 Howard Duff
       Grace Lenard Grace Lenard
       加尔·摩尔 Gar Moore
       威廉·H·奥布莱恩 William H. O''Brien
       Kenneth Patterson Kenneth Patterson
       Bill McLean Bill McLean
       Wally Maher Wally Maher
       Hugh Reilly Hugh Reilly
       乔·托克尔 Joe Turkel
       伯特史蒂文斯 Bert Stevens
       Duke York Duke York
        Robert A. O''Neil
       Sherman Sanders Sherman Sanders
       Edwin Max Edwin Max
       巴里·凯利 Barry Kelley
       Colin Kenny Colin Kenny
       Patricia Alphin Patricia Alphin
       利夫·埃里克森 Leif Erickson
       Burk Symon Burk Symon
       查尔斯·德拉克 Charles Drake
       约翰·麦克因泰 John McIntire
       Gregg Barton Gregg Barton
       詹姆斯·科纳蒂 James Conaty
       Don Hayden Don Hayden
       Al Ferguson Al Ferguson
       纳乔·加林多 Nacho Galindo
       Alan Foster Alan Foster
       Robert Foulk Robert Foulk
       Pilar Del Rey Pilar Del Rey
       Leslie Denison Leslie Denison
       Watson Downs Watson Downs
       埃隆·罗森伯格 Aaron Rosenberg
       Maury Gertsman Maury Gertsman
       泰德·J·肯特 Ted J. Kent
       伯纳德·赫兹布伦 Bernard Herzbrun
       Emrich Nicholson Emrich Nicholson
       约翰·P·奥斯汀 John P. Austin
       罗素·A·盖斯曼 Russell A. Gausman
       奥里-凯利 Orry-Kelly
       百德·沃斯塔梅尔 Bud Westmore
       Marshall Green Marshall Green
       杰西·希布斯 Jesse Hibbs


影片参数
  1. Video
  2. ID                                       : 1
  3. Format                                   : AVC
  4. Format/Info                              : Advanced Video Codec
  5. Format profile                           : [email protected]
  6. Format settings                          : CABAC / 5 Ref Frames
  7. Format settings, CABAC                   : Yes
  8. Format settings, Reference frames        : 5 frames
  9. Codec ID                                 : V_MPEG4/ISO/AVC
  10. Duration                                 : 1 h 15 min
  11. Bit rate                                 : 10.2 Mb/s
  12. Width                                    : 1 484 pixels
  13. Height                                   : 1 080 pixels
  14. Display aspect ratio                     : 1.374
  15. Frame rate mode                          : Constant
  16. Frame rate                               : 24.000 FPS
  17. Color space                              : YUV
  18. Chroma subsampling                       : 4:2:0
  19. Bit depth                                : 8 bits
  20. Scan type                                : Progressive
  21. Bits/(Pixel*Frame)                       : 0.264
  22. Stream size                              : 5.33 GiB (96%)
  23. Writing library                          : x264 core 164 r3081 19856cc
  24. Encoding settings                        : cabac=1 / ref=5 / deblock=1:-3:-3 / analyse=0x3:0x133 / me=umh / subme=10 / psy=1 / psy_rd=1.00:0.00 / mixed_ref=1 / me_range=32 / chroma_me=1 / trellis=2 / 8x8dct=1 / cqm=0 / deadzone=21,11 / fast_pskip=0 / chroma_qp_offset=-2 / threads=24 / lookahead_threads=6 / sliced_threads=0 / nr=0 / decimate=0 / interlaced=0 / bluray_compat=0 / constrained_intra=0 / bframes=16 / b_pyramid=2 / b_adapt=2 / b_bias=0 / direct=3 / weightb=1 / open_gop=0 / weightp=2 / keyint=240 / keyint_min=24 / scenecut=40 / intra_refresh=0 / rc_lookahead=60 / rc=crf / mbtree=0 / crf=20.0 / qcomp=0.60 / qpmin=0 / qpmax=69 / qpstep=4 / vbv_maxrate=62500 / vbv_bufsize=78125 / crf_max=0.0 / nal_hrd=none / filler=0 / ip_ratio=1.40 / pb_ratio=1.30 / aq=2:1.00
  25. Default                                  : Yes
  26. Forced                                   : No
  27. Color range                              : Limited
  28. Color primaries                          : BT.709
  29. Transfer characteristics                 : BT.709
  30. Matrix coefficients                      : BT.709
  31. Audio #1
  32. ID                                       : 2
  33. Format                                   : FLAC
  34. Format/Info                              : Free Lossless Audio Codec
  35. Codec ID                                 : A_FLAC
  36. Duration                                 : 1 h 15 min
  37. Bit rate mode                            : Variable
  38. Bit rate                                 : 358 kb/s
  39. Channel(s)                               : 2 channels
  40. Sampling rate                            : 48.0 kHz
  41. Frame rate                               : 11.719 FPS (4096 SPF)
  42. Bit depth                                : 16 bits
  43. Compression mode                         : Lossless
  44. Stream size                              : 193 MiB (3%)
  45. Writing library                          : libFLAC 1.2.1 (UTC 2007-09-17)
  46. Language                                 : English
  47. Default                                  : Yes
  48. Forced                                   : No
  49. Audio #2
  50. ID                                       : 3
  51. Format                                   : AAC LC
  52. Format/Info                              : Advanced Audio Codec Low Complexity
  53. Codec ID                                 : A_AAC-2
  54. Duration                                 : 1 h 15 min
  55. Bit rate                                 : 81.1 kb/s
  56. Channel(s)                               : 2 channels
  57. Channel layout                           : L R
  58. Sampling rate                            : 48.0 kHz
  59. Frame rate                               : 46.875 FPS (1024 SPF)
  60. Compression mode                         : Lossy
  61. Stream size                              : 43.6 MiB (1%)
  62. Title                                    : Commentary by professor and film scholar Jason A. Ney
  63. Language                                 : English
  64. Default                                  : No
  65. Forced                                   : No
  66. Text #1
  67. ID                                       : 4
  68. Format                                   : UTF-8
  69. Codec ID                                 : S_TEXT/UTF8
  70. Codec ID/Info                            : UTF-8 Plain Text
  71. Duration                                 : 1 h 11 min
  72. Bit rate                                 : 66 b/s
  73. Count of elements                        : 1141
  74. Stream size                              : 34.8 KiB (0%)
  75. Language                                 : English
  76. Default                                  : No
  77. Forced                                   : No
  78. Text #2
  79. ID                                       : 5
  80. Format                                   : UTF-8
  81. Codec ID                                 : S_TEXT/UTF8
  82. Codec ID/Info                            : UTF-8 Plain Text
  83. Duration                                 : 1 h 14 min
  84. Bit rate                                 : 68 b/s
  85. Count of elements                        : 1222
  86. Stream size                              : 37.4 KiB (0%)
  87. Title                                    : Hard of Hearing
  88. Language                                 : English
  89. Default                                  : No
  90. Forced                                   : No
  91. Menu
  92. 00:00:00.000                             : :Chapter 1
  93. 00:05:07.542                             : :Chapter 2
  94. 00:12:12.792                             : :Chapter 3
  95. 00:21:32.542                             : :Chapter 4
  96. 00:32:22.542                             : :Chapter 5
  97. 00:44:00.750                             : :Chapter 6
  98. 00:54:47.042                             : :Chapter 7
  99. 01:05:47.000                             : :Chapter 8
复制代码



蓝光高清网提示您 点击下方附件即可下载

大破贩毒党 Johnny.Stool.Pigeon.1949.1080p.BluRay.x264.FLAC.2.0-HANDJOB 5.56GB

Johnny.Stool.Pigeon.1949.1080p.BluRay.x264.FLAC.2.0-HANDJOB.torrent ( 14.56 KB )

加入蓝光高清网VIP会员  无限制下载本站所有资源---点这里

资源下载、资源播放、字幕使用、无法下载等常见问题---点这里
回复

使用道具 举报

全部回复0 显示全部楼层

发表回复

您需要登录后才可以回帖 登录 | 立即注册

本版积分规则

楼主

超级版主

热门推荐

开通会员 帮助中心 返回顶部 返回列表