本站已运行

蓝光高清网

搜索

[剧情] 少女情怀总是诗[中英字幕].Bilitis.1977.BluRay.1080p.x265.10bit.FLAC-MiniHD 12.67GB

蓝鸟 发表于 2022-5-6 08:38:01 | 显示全部楼层 |阅读模式

少女情怀总是诗[中英字幕].Bilitis.1977.BluRay.1080p.x265.10bit.FLAC-MiniHD 12.67GB

少女情怀总是诗[中英字幕].Bilitis.1977.BluRay.1080p.x265.10bit.FLAC-MiniHD 12.67GB


译  名 少女情怀总是诗 / 比利提斯
片  名 Bilitis
年  代 1977
产  地 法国 / 意大利
类  别 剧情 / 爱情 / 情色
语  言 法语
上映日期 1977-03-16
豆瓣评分 7.4/10 (7714人评价)
片  长 95 分钟
导  演 大卫·汉密尔顿 David Hamilton
编  剧 凯瑟琳·布雷亚 Catherine Breillat
演  员 帕蒂·达班维尔 Patti D''Arbanville
       贝纳·纪欧多 Bernard Giraudeau
       马修·加里瑞 Mathieu Carrière
       凯瑟琳·勒普兰斯 Catherine Leprince
       弗朗西斯·莱 Francis Lai
简  介
  「少女情懷總是詩」,是1977年坎城影展最受爭議的影片,以大膽而唯美的映像,描述一名情竇初開的女學生與她的初戀,而她的戀愛過程中,又牽扯到女同性戀的情節。標題的「碧麗提絲」,是古希臘一位生活在賽浦路斯的交際花,據說她曾經以跟她同一倳r代的古希臘女詩人賽佛(Sappho)類似的風格,寫下不少描述女同志愛情生活的詩篇,因此後來成了西方女同志的象徵人物,而她和賽佛所居住的小島「蕾絲柏斯」(Lesbos),更是女同志「蕾絲邊」(Lesbian)這偯~的來源。1955年,最早成立的女同志組織之一,就用「碧麗提絲的女兒」(Daughters of Bilitis)當作名稱。


影片参数
  1. ##### MediaInfo ######
  2. General
  3. Unique ID                                : 46817816865066828929695240602892146429 (0x2338C8964849730A769DA918FA3496FD)
  4. Complete name                            : Bilitis.1977.BluRay.1080p.x265.10bit.FLAC-MiniHD.mkv
  5. Format                                   : Matroska
  6. Format version                           : Version 4
  7. File size                                : 12.7 GiB
  8. Duration                                 : 1 h 35 min
  9. Overall bit rate mode                    : Variable
  10. Overall bit rate                         : 19.0 Mb/s
  11. Movie name                               : BILITIS
  12. Encoded date                             : UTC 2022-04-28 22:53:31
  13. Writing application                      : mkvmerge v67.0.0 (''Under Stars'') 64-bit
  14. Writing library                          : libebml v1.4.2 + libmatroska v1.6.4
  15. Cover                                    : Yes
  16. Attachments                              : cover.jpg
  17. Video
  18. ID                                       : 1
  19. Format                                   : HEVC
  20. Format/Info                              : High Efficiency Video Coding
  21. Format profile                           : Main [email protected]@High
  22. Codec ID                                 : V_MPEGH/ISO/HEVC
  23. Duration                                 : 1 h 35 min
  24. Bit rate                                 : 15.7 Mb/s
  25. Width                                    : 1 808 pixels
  26. Height                                   : 1 080 pixels
  27. Display aspect ratio                     : 5:3
  28. Frame rate mode                          : Constant
  29. Frame rate                               : 23.976 (24000/1001/53875) FPS
  30. Color space                              : YUV
  31. Chroma subsampling                       : 4:2:0
  32. Bit depth                                : 10 bits
  33. Bits/(Pixel*Frame)                       : 0.336
  34. Stream size                              : 10.5 GiB (83%)
  35. Writing library                          : x265 3.5+2-g2b25c9ba0+92-g0321ff7d8:[Windows][clang 13.0.0][64 bit] Yuuki 10bit+8bit+12bit
  36. Encoding settings                        : rc=crf / crf=18.0000 / qcomp=0.70 / qpstep=4 / stats-write=0 / stats-read=0 / vbv-maxrate=160000 / vbv-bufsize=160000 / vbv-init=0.9 / min-vbv-fullness=50.0 / max-vbv-fullness=80.0 / crf-max=0.0 / crf-min=0.0 / no-lossless / no-cu-lossless / aq-mode=1 / aq-strength=0.80 / cbqpoffs=-2 / crqpoffs=-3 / ipratio=1.40 / pbratio=1.20 / psy-rd=2.50 / psy-rdoq=1.60 / deblock=0:0 / ref=5 / limit-refs=1 / limit-modes / bframes=16 / b-adapt=2 / bframe-bias=0 / b-pyramid / b-intra / weightp / weightb / min-keyint=1 / max-keyint=600 / rc-lookahead=180 / gop-lookahead=0 / NTM4NzU=uuDQuD2mJt9fsCf / scenecut=40 / hist-scenecut=0 / radl=0 / max-cu-size=32 / min-cu-size=8 / me=3 / subme=5 / merange=57 / rdoq-level=2 / rd=5 / rdpenalty=0 / dynamic-rd=0.00 / no-rd-refine / ----- / cutree / no-sao / no-rect / no-amp / open-gop / wpp / no-pmode / no-pme / no-psnr / no-ssim / nr-intra=0 / nr-inter=0 / no-constrained-intra / no-strong-intra-smoothing / max-tu-size=32 / tu-inter-depth=3 / tu-intra-depth=3 / limit-tu=1 / qg-size=16 / qpmax=69 / qpmin=0 / ----- / cpuid=538751111039 / frame-threads=4 / numa-pools=16 / log-level=2 / input-csp=1 / input-res=1808x1080 / interlace=0 / level-idc=51 / high-tier=1 / uhd-bd=0 / no-allow-non-conformance / repeat-headers / aud / hrd / info / hash=0 / no-temporal-layers / lookahead-slices=0 / no-splice / no-intra-refresh / no-ssim-rd / signhide / no-tskip / max-merge=3 / temporal-mvp / no-frame-dup / no-hme / no-analyze-src-pics / no-sao-non-deblock / selective-sao=0 / no-early-skip / rskip / no-fast-intra / no-tskip-fast / no-splitrd-skip / zone-count=0 / no-strict-cbr / no-rc-grain / no-const-vbv / sar=0 / overscan=0 / videoformat=5 / range=0 / colorprim=2 / transfer=2 / colormatrix=1 / chromaloc=0 / display-window=0 / cll=0,0 / min-luma=0 / max-luma=1023 / log2-max-poc-lsb=8 / vui-timing-info / vui-hrd-info / slices=1 / no-opt-qp-pps / no-opt-ref-list-length-pps / no-multi-pass-opt-rps / scenecut-bias=0.05 / hist-threshold=0.03 / no-opt-cu-delta-qp / no-aq-motion / no-hdr10 / no-hdr10-opt / no-dhdr10-opt / no-idr-recovery-sei / analysis-reuse-level=0 / analysis-save-reuse-level=0 / analysis-load-reuse-level=0 / scale-factor=0 / refine-intra=0 / refine-inter=0 / refine-mv=1 / refine-ctu-distortion=0 / no-limit-sao / ctu-info=0 / no-lowpass-dct / refine-analysis-type=0 / copy-pic=1 / max-ausize-factor=1.0 / no-dynamic-refine / no-single-sei / no-hevc-aq / no-svt / no-field / qp-adaptation-range=1.00 / scenecut-aware-qp=0conformance-window-offsets / right=0 / bottom=0 / NTM4NzU= / decoder-max-rate=0 / no-vbv-live-multi-pass
  37. Language                                 : French
  38. Default                                  : Yes
  39. Forced                                   : No
  40. Color range                              : Limited
  41. Matrix coefficients                      : BT.709
  42. Audio #1
  43. ID                                       : 2
  44. Format                                   : FLAC
  45. Format/Info                              : Free Lossless Audio Codec
  46. Codec ID                                 : A_FLAC
  47. Duration                                 : 1 h 35 min
  48. Bit rate mode                            : Variable
  49. Bit rate                                 : 1 120 kb/s
  50. Channel(s)                               : 2 channels
  51. Channel layout                           : L R
  52. Sampling rate                            : 48.0 kHz
  53. Frame rate                               : 11.719 FPS (4096 SPF)
  54. Bit depth                                : 24 bits
  55. Compression mode                         : Lossless
  56. Stream size                              : 764 MiB (6%)
  57. Writing library                          : libFLAC 1.3.2 (UTC 2017-01-01)
  58. Language                                 : French
  59. Default                                  : Yes
  60. Forced                                   : No
  61. Audio #2
  62. ID                                       : 3
  63. Format                                   : FLAC
  64. Format/Info                              : Free Lossless Audio Codec
  65. Codec ID                                 : A_FLAC
  66. Duration                                 : 1 h 35 min
  67. Bit rate mode                            : Variable
  68. Bit rate                                 : 1 128 kb/s
  69. Channel(s)                               : 2 channels
  70. Channel layout                           : L R
  71. Sampling rate                            : 48.0 kHz
  72. Frame rate                               : 11.719 FPS (4096 SPF)
  73. Bit depth                                : 24 bits
  74. Compression mode                         : Lossless
  75. Stream size                              : 770 MiB (6%)
  76. Writing library                          : libFLAC 1.3.2 (UTC 2017-01-01)
  77. Language                                 : English
  78. Default                                  : No
  79. Forced                                   : No
  80. Audio #3
  81. ID                                       : 4
  82. Format                                   : FLAC
  83. Format/Info                              : Free Lossless Audio Codec
  84. Codec ID                                 : A_FLAC
  85. Duration                                 : 1 h 35 min
  86. Bit rate mode                            : Variable
  87. Bit rate                                 : 995 kb/s
  88. Channel(s)                               : 2 channels
  89. Channel layout                           : L R
  90. Sampling rate                            : 48.0 kHz
  91. Frame rate                               : 11.719 FPS (4096 SPF)
  92. Bit depth                                : 24 bits
  93. Compression mode                         : Lossless
  94. Stream size                              : 679 MiB (5%)
  95. Writing library                          : libFLAC 1.3.2 (UTC 2017-01-01)
  96. Language                                 : German
  97. Default                                  : No
  98. Forced                                   : No
  99. Text #1
  100. ID                                       : 5
  101. Format                                   : PGS
  102. Muxing mode                              : zlib
  103. Codec ID                                 : S_HDMV/PGS
  104. Codec ID/Info                            : Picture based subtitle format used on BDs/HD-DVDs
  105. Duration                                 : 1 h 28 min
  106. Bit rate                                 : 19.0 kb/s
  107. Count of elements                        : 1594
  108. Stream size                              : 12.0 MiB (0%)
  109. Title                                    : IWUBEN en
  110. Language                                 : English
  111. Default                                  : No
  112. Forced                                   : No
  113. Text #2
  114. ID                                       : 6
  115. Format                                   : PGS
  116. Muxing mode                              : zlib
  117. Codec ID                                 : S_HDMV/PGS
  118. Codec ID/Info                            : Picture based subtitle format used on BDs/HD-DVDs
  119. Duration                                 : 1 h 29 min
  120. Bit rate                                 : 17.2 kb/s
  121. Count of elements                        : 1600
  122. Stream size                              : 11.1 MiB (0%)
  123. Title                                    : IWUBEN zh-Hans
  124. Language                                 : Chinese
  125. Default                                  : Yes
  126. Forced                                   : No
  127. Text #3
  128. ID                                       : 7
  129. Format                                   : PGS
  130. Muxing mode                              : zlib
  131. Codec ID                                 : S_HDMV/PGS
  132. Codec ID/Info                            : Picture based subtitle format used on BDs/HD-DVDs
  133. Duration                                 : 1 h 29 min
  134. Bit rate                                 : 17.9 kb/s
  135. Count of elements                        : 1600
  136. Stream size                              : 11.5 MiB (0%)
  137. Title                                    : IWUBEN zh-NewHD
复制代码



蓝光高清网提示您 点击下方附件即可下载

少女情怀总是诗[中英字幕].Bilitis.1977.BluRay.1080p.x265.10bit.FLAC-MiniHD 12.67GB

少女情怀总是诗[中英字幕].Bilitis.1977.BluRay.1080p.x265.10bit.FLAC-MiniHD.torrent ( 32.61 KB )

加入蓝光高清网VIP会员  无限制下载本站所有资源---点这里

资源下载、资源播放、字幕使用、无法下载等常见问题---点这里
回复

使用道具 举报

全部回复0 显示全部楼层

发表回复

您需要登录后才可以回帖 登录 | 立即注册

本版积分规则

楼主

超级版主

热门推荐

开通会员 帮助中心 返回顶部 返回列表