本站已运行

蓝光高清网

搜索

[剧情] 怒海亡魂 The.Raging.Tide.1951.1080p.BluRay.x264.DTS-FGT 8.43GB

蓝鸟 发表于 2022-5-6 08:39:56 | 显示全部楼层 |阅读模式

怒海亡魂 The.Raging.Tide.1951.1080p.BluRay.x264.DTS-FGT 8.43GB

怒海亡魂 The.Raging.Tide.1951.1080p.BluRay.x264.DTS-FGT 8.43GB


译  名 怒海亡魂 / 怒海亡魂(港) / 怒涛狂澜
片  名 The Raging Tide
年  代 1951
产  地 美国
类  别 剧情 / 黑色电影
语  言 英语
上映日期 1951
片  长 93 分钟
导  演 乔治·雪曼 George Sherman
编  剧 欧内斯特·K·甘恩 Ernest K. Gann
演  员 谢利·温特斯 Shelley Winters
       理查德·康特 Richard Conte
       斯蒂芬·麦克纳利 Stephen McNally
       查尔斯·比克福德 Charles Bickford
       艾历克斯·尼科 Alex Nicol
       蒂托·沃洛 Tito Vuolo
       雷·沃克 Ray Walker
        Robert A. O''Neil
       米内尔娃·尤雷卡尔 Minerva Urecal
       约翰·麦克因泰 John McIntire
       Chubby Johnson Chubby Johnson
       Syd Saylor Syd Saylor
       Pepito Pérez Pepito Pérez
       John W. Rogers John W. Rogers
       埃隆·罗森伯格 Aaron Rosenberg
       弗兰克·斯金纳 Frank Skinner
       拉塞尔·麦蒂 Russell Metty
       泰德·J·肯特 Ted J. Kent
       罗素·A·盖斯曼 Russell A. Gausman
       奥利弗·埃默特 Oliver Emert
       希尔亚德·M·布朗 Hilyard M. Brown
       伯纳德·赫兹布伦 Bernard Herzbrun
       比尔·托马斯 Bill Thomas
       百德·沃斯塔梅尔 Bud Westmore

简  介

A San Francisco hood is rubbed out by rival Bruno Felkin, who himself reports the crime to Homicide Lieut. Kelsey in an alibi scheme which fails. To escape, he stows away on a fishing boat. At sea, skipper Hamil Linder receives Bruno kindly, teaching him fishing; Bruno enlists Hamil''s wayward son Carl to tend his slot machines. Then Carl takes an interest in Bruno''s girl Connie...


影片参数
  1. Video
  2. ID                                       : 1
  3. Format                                   : AVC
  4. Format/Info                              : Advanced Video Codec
  5. Format profile                           : [email protected]
  6. Format settings                          : CABAC / 4 Ref Frames
  7. Format settings, CABAC                   : Yes
  8. Format settings, Reference frames        : 4 frames
  9. Codec ID                                 : V_MPEG4/ISO/AVC
  10. Duration                                 : 1 h 32 min
  11. Bit rate                                 : 11.5 Mb/s
  12. Width                                    : 1 484 pixels
  13. Height                                   : 1 080 pixels
  14. Display aspect ratio                     : 1.374
  15. Frame rate mode                          : Constant
  16. Frame rate                               : 24.000 FPS
  17. Color space                              : YUV
  18. Chroma subsampling                       : 4:2:0
  19. Bit depth                                : 8 bits
  20. Scan type                                : Progressive
  21. Bits/(Pixel*Frame)                       : 0.299
  22. Stream size                              : 7.45 GiB (88%)
  23. Writing library                          : x264 core 148 r2795M aaa9aa8
  24. Encoding settings                        : cabac=1 / ref=4 / deblock=1:-2:-2 / analyse=0x3:0x113 / me=umh / subme=9 / psy=1 / psy_rd=1.00:0.15 / mixed_ref=1 / me_range=16 / chroma_me=1 / trellis=2 / 8x8dct=1 / cqm=0 / deadzone=21,11 / fast_pskip=1 / chroma_qp_offset=-3 / threads=24 / lookahead_threads=3 / sliced_threads=0 / nr=0 / decimate=1 / interlaced=0 / bluray_compat=0 / constrained_intra=0 / bframes=3 / b_pyramid=2 / b_adapt=1 / b_bias=0 / direct=3 / weightb=1 / open_gop=0 / weightp=2 / keyint=250 / keyint_min=25 / scenecut=40 / intra_refresh=0 / rc_lookahead=50 / rc=2pass / mbtree=1 / bitrate=11500 / ratetol=1.0 / qcomp=0.60 / qpmin=0 / qpmax=69 / qpstep=4 / cplxblur=20.0 / qblur=0.5 / vbv_maxrate=31250 / vbv_bufsize=31250 / nal_hrd=none / filler=0 / ip_ratio=1.40 / aq=1:1.00
  25. Language                                 : English
  26. Default                                  : Yes
  27. Forced                                   : No
  28. Audio
  29. ID                                       : 2
  30. Format                                   : DTS
  31. Format/Info                              : Digital Theater Systems
  32. Codec ID                                 : A_DTS
  33. Duration                                 : 1 h 32 min
  34. Bit rate mode                            : Constant
  35. Bit rate                                 : 1 509 kb/s
  36. Channel(s)                               : 2 channels
  37. Channel layout                           : L R
  38. Sampling rate                            : 48.0 kHz
  39. Frame rate                               : 93.750 FPS (512 SPF)
  40. Bit depth                                : 16 bits
  41. Compression mode                         : Lossy
  42. Stream size                              : 1 002 MiB (12%)
  43. Language                                 : English
  44. Default                                  : Yes
  45. Forced                                   : No
  46. Text #1
  47. ID                                       : 3
  48. Format                                   : UTF-8
  49. Codec ID                                 : S_TEXT/UTF8
  50. Codec ID/Info                            : UTF-8 Plain Text
  51. Duration                                 : 1 h 30 min
  52. Bit rate                                 : 69 b/s
  53. Count of elements                        : 1355
  54. Stream size                              : 46.3 KiB (0%)
  55. Language                                 : English
  56. Default                                  : Yes
  57. Forced                                   : No
  58. Text #2
  59. ID                                       : 4
  60. Format                                   : UTF-8
  61. Codec ID                                 : S_TEXT/UTF8
  62. Codec ID/Info                            : UTF-8 Plain Text
  63. Duration                                 : 1 h 32 min
  64. Bit rate                                 : 71 b/s
  65. Count of elements                        : 1474
  66. Stream size                              : 48.4 KiB (0%)
  67. Title                                    : SDH
  68. Language                                 : English
  69. Default                                  : No
  70. Forced                                   : No
  71. Menu
  72. 00:00:00.000                             : en:Chapter 00
  73. 00:09:07.000                             : en:Chapter 01
  74. 00:20:53.250                             : en:Chapter 02
  75. 00:31:24.458                             : en:Chapter 03
  76. 00:41:23.208                             : en:Chapter 04
  77. 00:56:46.916                             : en:Chapter 05
  78. 01:07:50.666                             : en:Chapter 06
  79. 01:21:24.958                             : en:Chapter 07
复制代码

怒海亡魂 The.Raging.Tide.1951.1080p.BluRay.x264.DTS-FGT 8.43GB

怒海亡魂 The.Raging.Tide.1951.1080p.BluRay.x264.DTS-FGT 8.43GB

怒海亡魂 The.Raging.Tide.1951.1080p.BluRay.x264.DTS-FGT 8.43GB

怒海亡魂 The.Raging.Tide.1951.1080p.BluRay.x264.DTS-FGT 8.43GB



蓝光高清网提示您 点击下方附件即可下载

怒海亡魂 The.Raging.Tide.1951.1080p.BluRay.x264.DTS-FGT 8.43GB

The.Raging.Tide.1951.1080p.BluRay.x264.DTS-FGT.torrent ( 21.7 KB )

加入蓝光高清网VIP会员  无限制下载本站所有资源---点这里

资源下载、资源播放、字幕使用、无法下载等常见问题---点这里
回复

使用道具 举报

全部回复0 显示全部楼层

发表回复

您需要登录后才可以回帖 登录 | 立即注册

本版积分规则

开通会员 帮助中心 返回顶部 返回列表