本站已运行

蓝光高清网

搜索

[爱情] 薰衣草[国粤英多音轨/简繁英字幕].Lavender.2000.BluRay.1080p.2Audio.DTS-HD.MA.2.0.x265.10bit-ALT 9.64GB

蓝鸟 发表于 2022-5-6 08:43:25 | 显示全部楼层 |阅读模式

薰衣草[国粤英多音轨/简繁英字幕].Lavender.2000.BluRay.1080p.2Audio.DTS-HD.MA.2.0.x265.10bit-ALT 9.64G ...

薰衣草[国粤英多音轨/简繁英字幕].Lavender.2000.BluRay.1080p.2Audio.DTS-HD.MA.2.0.x265.10bit-ALT 9.64G ...


译  名 薰衣草 / Lavender / Fan yi cho
年  代 2000
产  地 中国香港
类  别 爱情 / 奇幻
语  言 粤语
上映日期 2001-02-08(马来西亚)
豆瓣评分 6.8/10 (16707人评价)
片  长 111分钟
导  演 叶锦鸿 Kam-Hung Yip
编  剧 叶锦鸿 Kam-Hung Yip
演  员 金城武 Takeshi Kaneshiro
       陈慧琳 Kelly Chen
       陈奕迅 Eason Chan
       郑佩佩 Pei-pei Cheng
       谷德昭 Vincent Kok
       尹子维 Terence Yin
       Audrey Mak Audrey Mak
       陈锡康 David Chan
       伍乐城 Ronald Ng
       关本良 Pung-Leung Kwan
       李明文 Maurice Li
       黄炳耀 Pater Wong
       David Pun Chi Wai David Pun Chi Wai
       潘志伟 Chi-Wai Poon
       吴里璐 Dora Ng
       黄国雄 Samuel Wong
       周惠坤 Thomas Chow
       黄宏达 Victor Wong
       黄宏显 Eddy Wong
简  介
  Athena是一个香薰班的导师,内心充满了丰富情感。她每天都过着十分落寞的生活,每天都是同样的一个模式,每天都会买一个气球写上并放飞自己的心情。有一天她洗澡的时候听到了楼顶上的巨响,看见了一个有翅膀的庞然大物,原来是个受伤了的天使(金城武 饰)。天使需要每天靠爱来维持生命,Athena便每天带着他穿梭在城市中。天使也知道原来Athena一直闷闷不乐是因为她一直牵挂着死去的前男友,天使也决定帮她找回快乐与朝气。                                    
                                天使得知,在千禧年来临的子夜弥撒中,梵蒂冈的圣门会打开,天使便可以回到属于自己的地方,他请求Athena带他到梵蒂冈……
获奖情况 (共6项)
  第20届香港电影金像奖 (2001)
  最佳男配角(提名)
   └──陈奕迅
  最佳摄影(提名)
   └──关本良
  最佳美术指导(提名)
  最佳服装造型设计(提名)
   └──吴里璐
  最佳原创电影音乐(提名)
   └──伍乐城
  最佳原创电影歌曲(提名)
   └──陈慧琳


影片参数
  1. ##### MediaInfo ######
  2. General
  3. Unique ID                                : 281369238728078736601991979811922082929 (0xD3ADBE85D47F3F2E557EDC626DBD7C71)
  4. Complete name                            : Lavender.2000.BluRay.1080p.2Audio.DTS-HD.MA.2.0.x265.10bit-ALT.mkv
  5. Format                                   : Matroska
  6. Format version                           : Version 4
  7. File size                                : 9.64 GiB
  8. Duration                                 : 1 h 42 min
  9. Overall bit rate mode                    : Variable
  10. Overall bit rate                         : 13.5 Mb/s
  11. Encoded date                             : UTC 2022-05-03 02:22:52
  12. Writing application                      : mkvmerge v49.0.0 (''Sick Of Losing Soulmates'') 64-bit
  13. Writing library                          : libebml v1.4.0 + libmatroska v1.6.1
  14. Video
  15. ID                                       : 1
  16. Format                                   : HEVC
  17. Format/Info                              : High Efficiency Video Coding
  18. Format profile                           : Main [email protected]@High
  19. Codec ID                                 : V_MPEGH/ISO/HEVC
  20. Duration                                 : 1 h 42 min
  21. Bit rate                                 : 11.8 Mb/s
  22. Width                                    : 1 920 pixels
  23. Height                                   : 1 080 pixels
  24. Display aspect ratio                     : 16:9
  25. Frame rate mode                          : Constant
  26. Frame rate                               : 24.000 FPS
  27. Color space                              : YUV
  28. Chroma subsampling                       : 4:2:0
  29. Bit depth                                : 10 bits
  30. Bits/(Pixel*Frame)                       : 0.236
  31. Stream size                              : 8.39 GiB (87%)
  32. Title                                    : HEVC, [email protected]@High, 24 fps @ 11767 kbps
  33. Writing library                          : x265 3.5+36-1f2c8da77:[Windows][GCC 11.2.0][64 bit] 10bit
  34. Encoding settings                        : cpuid=538751111039 / frame-threads=4 / numa-pools=20 / wpp / no-pmode / no-pme / no-psnr / no-ssim / log-level=2 / input-csp=1 / input-res=1920x1080 / interlace=0 / total-frames=147004 / level-idc=51 / high-tier=1 / uhd-bd=0 / ref=5 / no-allow-non-conformance / no-repeat-headers / annexb / no-aud / no-eob / no-eos / no-hrd / info / hash=0 / no-temporal-layers / open-gop / min-keyint=24 / keyint=240 / gop-lookahead=0 / bframes=6 / b-adapt=2 / b-pyramid / bframe-bias=0 / rc-lookahead=40 / lookahead-slices=0 / NTM4NzU=uuDQuD2mJt9fsCf / scenecut=40 / no-hist-scenecut / radl=0 / no-splice / no-intra-refresh / ctu=32 / min-cu-size=8 / no-rect / no-amp / max-tu-size=32 / tu-inter-depth=3 / tu-intra-depth=3 / limit-tu=4 / rdoq-level=2 / dynamic-rd=0.00 / no-ssim-rd / signhide / no-tskip / nr-intra=0 / nr-inter=0 / no-constrained-intra / no-strong-intra-smoothing / max-merge=4 / limit-refs=1 / limit-modes / me=3 / subme=4 / merange=25 / temporal-mvp / no-frame-dup / no-hme / weightp / weightb / no-analyze-src-pics / deblock=-3:-3 / no-sao / no-sao-non-deblock / rd=6 / selective-sao=0 / no-early-skip / rskip / no-fast-intra / no-tskip-fast / no-cu-lossless / b-intra / no-splitrd-skip / rdpenalty=0 / psy-rd=2.00 / psy-rdoq=1.00 / no-rd-refine / no-lossless / cbqpoffs=-2 / crqpoffs=-2 / rc=crf / crf=19.5 / qcomp=0.65 / qpstep=4 / stats-write=0 / stats-read=0 / vbv-maxrate=80000 / vbv-bufsize=80000 / vbv-init=0.9 / min-vbv-fullness=50.0 / max-vbv-fullness=80.0 / crf-max=0.0 / crf-min=0.0 / ipratio=1.40 / pbratio=1.30 / aq-mode=2 / aq-strength=0.85 / cutree / zone-count=0 / no-strict-cbr / qg-size=32 / no-rc-grain / qpmax=69 / qpmin=0 / no-const-vbv / sar=1 / overscan=0 / videoformat=5 / range=0 / colorprim=1 / transfer=1 / colormatrix=1 / chromaloc=0 / display-window=0 / cll=0,0 / min-luma=0 / max-luma=1023 / log2-max-poc-lsb=8 / vui-timing-info / vui-hrd-info / slices=1 / no-opt-qp-pps / no-opt-ref-list-length-pps / no-multi-pass-opt-rps / scenecut-bias=0.05 / hist-threshold=0.03 / no-opt-cu-delta-qp / no-aq-motion / no-hdr10 / no-hdr10-opt / no-dhdr10-opt / no-idr-recovery-sei / analysis-reuse-level=0 / analysis-save-reuse-level=0 / analysis-load-reuse-level=0 / scale-factor=0 / refine-intra=0 / refine-inter=0 / refine-mv=1 / refine-ctu-distortion=0 / no-limit-sao / ctu-info=0 / no-lowpass-dct / refine-analysis-type=0 / copy-pic=1 / max-ausize-factor=1.0 / no-dynamic-refine / no-single-sei / no-hevc-aq / no-svt / no-field / qp-adaptation-range=1.00 / scenecut-aware-qp=0conformance-window-offsets / right=0 / bottom=0 / NTM4NzU= / decoder-max-rate=0 / no-vbv-live-multi-pass
  35. Language                                 : English
  36. Default                                  : Yes
  37. Forced                                   : No
  38. Color range                              : Limited
  39. Color primaries                          : BT.709
  40. Transfer characteristics                 : BT.709
  41. Matrix coefficients                      : BT.709
  42. Audio #1
  43. ID                                       : 2
  44. Format                                   : DTS XLL
  45. Format/Info                              : Digital Theater Systems
  46. Commercial name                          : DTS-HD Master Audio
  47. Codec ID                                 : A_DTS
  48. Duration                                 : 1 h 42 min
  49. Bit rate mode                            : Variable
  50. Bit rate                                 : 841 kb/s
  51. Channel(s)                               : 2 channels
  52. Channel layout                           : L R
  53. Sampling rate                            : 48.0 kHz
  54. Frame rate                               : 93.750 FPS (512 SPF)
  55. Bit depth                                : 16 bits
  56. Compression mode                         : Lossless
  57. Stream size                              : 614 MiB (6%)
  58. Title                                    : Cantonese DTS-HD Master Audio 2.0 @ 842 kbps
  59. Language                                 : Chinese
  60. Default                                  : Yes
  61. Forced                                   : No
  62. Audio #2
  63. ID                                       : 3
  64. Format                                   : DTS XLL
  65. Format/Info                              : Digital Theater Systems
  66. Commercial name                          : DTS-HD Master Audio
  67. Codec ID                                 : A_DTS
  68. Duration                                 : 1 h 42 min
  69. Bit rate mode                            : Variable
  70. Bit rate                                 : 851 kb/s
  71. Channel(s)                               : 2 channels
  72. Channel layout                           : L R
  73. Sampling rate                            : 48.0 kHz
  74. Frame rate                               : 93.750 FPS (512 SPF)
  75. Bit depth                                : 16 bits
  76. Compression mode                         : Lossless
  77. Stream size                              : 622 MiB (6%)
  78. Title                                    : Mandarin DTS-HD Master Audio 2.0 @ 852 kbps
  79. Language                                 : Chinese
  80. Default                                  : No
  81. Forced                                   : No
  82. Text #1
  83. ID                                       : 4
  84. Format                                   : PGS
  85. Codec ID                                 : S_HDMV/PGS
  86. Codec ID/Info                            : Picture based subtitle format used on BDs/HD-DVDs
  87. Duration                                 : 1 h 36 min
  88. Bit rate                                 : 18.8 kb/s
  89. Count of elements                        : 1439
  90. Stream size                              : 12.9 MiB (0%)
  91. Title                                    : Cht/SUP  原盘繁体
  92. Language                                 : Chinese
  93. Default                                  : No
  94. Forced                                   : No
  95. Text #2
  96. ID                                       : 5
  97. Format                                   : PGS
  98. Codec ID                                 : S_HDMV/PGS
  99. Codec ID/Info                            : Picture based subtitle format used on BDs/HD-DVDs
  100. Duration                                 : 1 h 36 min
  101. Bit rate                                 : 17.4 kb/s
  102. Count of elements                        : 1438
  103. Stream size                              : 11.9 MiB (0%)
  104. Title                                    : Chs/SUP  原盘简体
  105. Language                                 : Chinese
  106. Default                                  : Yes
  107. Forced                                   : No
  108. Text #3
  109. ID                                       : 6
  110. Format                                   : PGS
  111. Codec ID                                 : S_HDMV/PGS
  112. Codec ID/Info                            : Picture based subtitle format used on BDs/HD-DVDs
  113. Duration                                 : 1 h 36 min
  114. Bit rate                                 : 15.3 kb/s
  115. Count of elements                        : 1439
  116. Stream size                              : 10.5 MiB (0%)
  117. Title                                    : Eng/SUP
  118. Language                                 : English
  119. Default                                  : No
  120. Forced                                   : No
  121. Menu
  122. 00:00:00.000                             : en:第 01 章
  123. 00:11:56.875                             : en:第 02 章
  124. 00:17:46.042                             : en:第 03 章
  125. 00:24:55.792                             : en:第 04 章
  126. 00:34:28.792                             : en:第 05 章
  127. 00:41:02.125                             : en:第 06 章
  128. 00:51:44.250                             : en:第 07 章
  129. 00:59:09.750                             : en:第 08 章
  130. 01:07:15.958                             : en:第 09 章
  131. 01:15:38.083                             : en:第 10 章
  132. 01:24:17.292                             : en:第 11 章
  133. 01:35:52.292                             : en:第 12 章

复制代码


薰衣草[国粤英多音轨/简繁英字幕].Lavender.2000.BluRay.1080p.2Audio.DTS-HD.MA.2.0.x265.10bit-ALT 9.64G ...

薰衣草[国粤英多音轨/简繁英字幕].Lavender.2000.BluRay.1080p.2Audio.DTS-HD.MA.2.0.x265.10bit-ALT 9.64G ...

薰衣草[国粤英多音轨/简繁英字幕].Lavender.2000.BluRay.1080p.2Audio.DTS-HD.MA.2.0.x265.10bit-ALT 9.64G ...

薰衣草[国粤英多音轨/简繁英字幕].Lavender.2000.BluRay.1080p.2Audio.DTS-HD.MA.2.0.x265.10bit-ALT 9.64G ...



蓝光高清网提示您 点击下方附件即可下载

薰衣草[国粤英多音轨/简繁英字幕].Lavender.2000.BluRay.1080p.2Audio.DTS-HD.MA.2.0.x265.10bit-ALT 9.64GB

薰衣草[国粤英多音轨 简繁英字幕].Lavender.2000.BluRay.1080p.2Audio.DTS-HD.MA.2.0.torrent ( 25.07 KB )

加入蓝光高清网VIP会员  无限制下载本站所有资源---点这里

资源下载、资源播放、字幕使用、无法下载等常见问题---点这里
回复

使用道具 举报

全部回复0 显示全部楼层

发表回复

您需要登录后才可以回帖 登录 | 立即注册

本版积分规则

开通会员 帮助中心 返回顶部 返回列表