本站已运行

蓝光高清网

搜索

[剧情] 致青春[共2部合集][国语音轨/繁英字幕].So.Young.1-2.2013-2016.BluRay.1080p.DTS-HD.MA.5.1.x265.10bit-ALT 21.75GB

蓝鸟 发表于 2022-5-6 08:46:18 | 显示全部楼层 |阅读模式

致青春[共2部合集][国语音轨/繁英字幕].So.Young.1-2.2013-2016.BluRay.1080p.DTS-HD.MA.5.1.x265.10bit-AL ...

致青春[共2部合集][国语音轨/繁英字幕].So.Young.1-2.2013-2016.BluRay.1080p.DTS-HD.MA.5.1.x265.10bit-AL ...


译  名 致青春·原来你还在这里 / 致青春2 / 原来你还在这里 / 致我们终将逝去的青春2 / 原来 / Never Gone
年  代 2016
产  地 中国大陆
类  别 剧情 / 爱情
语  言 汉语普通话
上映日期 2016-07-08(中国大陆)
豆瓣评分 4.2/10 (157677人评价)
片  长 98分钟
导  演 周拓如 Tuoru Zhou
编  剧 周拓如 Tuoru Zhou
       辛夷坞 Yiwu Xin
演  员 刘亦菲 Yifei Liu
       金世佳 Shijia Jin
       李沁 Qin Li
       李梦 Meng Li
       郝劭文 Shaowen Hao
       陈燃 Ran Chen
       乔任梁 RenLiang Qiao
       丁冠森 Guansen Ding
       王太利 Taili Wang
       罗四维 Siwei Luo
       房鑫 Xin Fang
       朱嘉琦 Jiaqi Zhu
       刘晨霞 Chenxia Liu
       楚建 Jian Chu
       陈果 Guo Chen
       潘启言 Qiyan Pan
       程昱泓 Yuhong Cheng
       颜景瑶 Jingyao Yan
       张一白 Yibai Zhang
       尹思勰 Sixie Yin
       赵晓时 Xiaoshi Zhao
简  介
  外表温柔安静的苏韵锦(刘亦菲 饰)在高中同学程铮(吴亦凡 饰)的深情追求下慢慢爱上了对方,可无奈相爱容易相处难,自小生活环境的差异以及性格的迥异开始成为两人之间的问题,矛盾的不断发现最终还是让感情出现了裂痕最后走到了分手境地。                                    
                                几年后,苏韵锦成为了一个事业有成的职场女强人,但平静的生活因程铮的再次出现而泛起了涟漪,两人剪不断理还乱的感情促使他们又纠缠到了一起,并且这时才知道彼此在这几年中都没有放下,想爱但又怕过去重演……
获奖情况 (共1项)
  第8届金扫帚奖 (2017)
  最令人失望男演员




影片参数
  1. 合集文件列表:

  2. 1.So.Young.2.Never.Gone.2016.BluRay.1080p.TrueHD.5.1.x265.10bit-ALT.mkv 7.23GB

  3. 2.So.Young.2013.BluRay.1080p.TrueHD.5.1.x265.10bit-ALT.mkv 14.51GB

复制代码



影片参数
  1. ##### MediaInfo ######
  2. General
  3. Unique ID                                : 314620199130897891768023365169942414832 (0xECB1A571653BA9D592D29FA24268C5F0)
  4. Complete name                            : So.Young.2.Never.Gone.2016.BluRay.1080p.TrueHD.5.1.x265.10bit-ALT.mkv
  5. Format                                   : Matroska
  6. Format version                           : Version 4
  7. File size                                : 7.23 GiB
  8. Duration                                 : 1 h 39 min
  9. Overall bit rate mode                    : Variable
  10. Overall bit rate                         : 10.4 Mb/s
  11. Encoded date                             : UTC 2021-07-11 05:59:01
  12. Writing application                      : mkvmerge v49.0.0 (''Sick Of Losing Soulmates'') 64-bit
  13. Writing library                          : libebml v1.4.0 + libmatroska v1.6.1
  14. Video
  15. ID                                       : 1
  16. Format                                   : HEVC
  17. Format/Info                              : High Efficiency Video Coding
  18. Format profile                           : Main [email protected]@High
  19. Codec ID                                 : V_MPEGH/ISO/HEVC
  20. Duration                                 : 1 h 39 min
  21. Bit rate                                 : 7 624 kb/s
  22. Width                                    : 1 920 pixels
  23. Height                                   : 806 pixels
  24. Display aspect ratio                     : 2.40:1
  25. Frame rate mode                          : Constant
  26. Frame rate                               : 24.000 FPS
  27. Color space                              : YUV
  28. Chroma subsampling                       : 4:2:0
  29. Bit depth                                : 10 bits
  30. Bits/(Pixel*Frame)                       : 0.205
  31. Stream size                              : 5.30 GiB (73%)
  32. Title                                    : HEVC, [email protected]@High, 24 fps @ 7623 kbps
  33. Writing library                          : x265 3.4+14-gd419c7152:[Windows][GCC 10.2.0][64 bit] 10bit
  34. Encoding settings                        : cpuid=538751111039 / frame-threads=4 / numa-pools=16 / wpp / pmode / pme / no-psnr / no-ssim / log-level=2 / input-csp=1 / input-res=1920x806 / interlace=0 / total-frames=143453 / level-idc=51 / high-tier=1 / uhd-bd=0 / ref=5 / no-allow-non-conformance / no-repeat-headers / annexb / no-aud / no-hrd / info / hash=0 / no-temporal-layers / open-gop / min-keyint=24 / keyint=240 / gop-lookahead=0 / bframes=6 / b-adapt=2 / b-pyramid / bframe-bias=0 / rc-lookahead=40 / lookahead-slices=0 / NTM4NzU=uuDQuD2mJt9fsCf / scenecut=40 / hist-scenecut=0 / radl=0 / no-splice / no-intra-refresh / ctu=32 / min-cu-size=8 / no-rect / no-amp / max-tu-size=32 / tu-inter-depth=3 / tu-intra-depth=3 / limit-tu=4 / rdoq-level=2 / dynamic-rd=0.00 / no-ssim-rd / signhide / no-tskip / nr-intra=0 / nr-inter=0 / no-constrained-intra / no-strong-intra-smoothing / max-merge=4 / limit-refs=1 / limit-modes / me=3 / subme=4 / merange=25 / temporal-mvp / no-frame-dup / no-hme / weightp / weightb / no-analyze-src-pics / deblock=-3:-3 / no-sao / no-sao-non-deblock / rd=6 / selective-sao=0 / no-early-skip / rskip / no-fast-intra / no-tskip-fast / no-cu-lossless / b-intra / no-splitrd-skip / rdpenalty=0 / psy-rd=2.00 / psy-rdoq=1.00 / no-rd-refine / no-lossless / cbqpoffs=0 / crqpoffs=0 / rc=crf / crf=17.0 / qcomp=0.65 / qpstep=4 / stats-write=0 / stats-read=0 / vbv-maxrate=80000 / vbv-bufsize=80000 / vbv-init=0.9 / crf-max=0.0 / crf-min=0.0 / ipratio=1.40 / pbratio=1.30 / aq-mode=2 / aq-strength=0.85 / cutree / zone-count=0 / no-strict-cbr / qg-size=32 / no-rc-grain / qpmax=69 / qpmin=0 / no-const-vbv / sar=1 / overscan=0 / videoformat=5 / range=0 / colorprim=1 / transfer=1 / colormatrix=1 / chromaloc=0 / display-window=0 / cll=0,0 / min-luma=0 / max-luma=1023 / log2-max-poc-lsb=8 / vui-timing-info / vui-hrd-info / slices=1 / no-opt-qp-pps / no-opt-ref-list-length-pps / no-multi-pass-opt-rps / scenecut-bias=0.05 / hist-threshold=0.03 / no-opt-cu-delta-qp / no-aq-motion / no-hdr10 / no-hdr10-opt / no-dhdr10-opt / no-idr-recovery-sei / analysis-reuse-level=0 / analysis-save-reuse-level=0 / analysis-load-reuse-level=0 / scale-factor=0 / refine-intra=0 / refine-inter=0 / refine-mv=1 / refine-ctu-distortion=0 / no-limit-sao / ctu-info=0 / no-lowpass-dct / refine-analysis-type=0 / copy-pic=1 / max-ausize-factor=1.0 / no-dynamic-refine / no-single-sei / no-hevc-aq / no-svt / no-field / qp-adaptation-range=1.00 / no-scenecut-aware-qpconformance-window-offsets / right=0 / bottom=0 / NTM4NzU= / decoder-max-rate=0
  35. Language                                 : English
  36. Default                                  : Yes
  37. Forced                                   : No
  38. Color range                              : Limited
  39. Color primaries                          : BT.709
  40. Transfer characteristics                 : BT.709
  41. Matrix coefficients                      : BT.709
  42. Audio #1
  43. ID                                       : 2
  44. Format                                   : MLP FBA
  45. Format/Info                              : Meridian Lossless Packing FBA
  46. Commercial name                          : Dolby TrueHD
  47. Codec ID                                 : A_TRUEHD
  48. Duration                                 : 1 h 39 min
  49. Bit rate mode                            : Variable
  50. Bit rate                                 : 2 016 kb/s
  51. Maximum bit rate                         : 3 090 kb/s
  52. Channel(s)                               : 6 channels
  53. Channel layout                           : L R C LFE Ls Rs
  54. Sampling rate                            : 96.0 kHz
  55. Frame rate                               : 1 200.000 FPS (80 SPF)
  56. Compression mode                         : Lossless
  57. Stream size                              : 1.40 GiB (19%)
  58. Title                                    : Mandarin Dolby TrueHD Audio 5.1 @ 2016 kbps
  59. Language                                 : Chinese
  60. Default                                  : Yes
  61. Forced                                   : No
  62. Audio #2
  63. ID                                       : 3
  64. Format                                   : AC-3
  65. Format/Info                              : Audio Coding 3
  66. Commercial name                          : Dolby Digital
  67. Codec ID                                 : A_AC3
  68. Duration                                 : 1 h 39 min
  69. Bit rate mode                            : Constant
  70. Bit rate                                 : 640 kb/s
  71. Channel(s)                               : 6 channels
  72. Channel layout                           : L R C LFE Ls Rs
  73. Sampling rate                            : 48.0 kHz
  74. Frame rate                               : 31.250 FPS (1536 SPF)
  75. Compression mode                         : Lossy
  76. Stream size                              : 456 MiB (6%)
  77. Title                                    : Mandarin Dolby Digital 5.1-EX @ 640 kbps
  78. Language                                 : Chinese
  79. Service kind                             : Complete Main
  80. Default                                  : No
  81. Forced                                   : No
  82. Text #1
  83. ID                                       : 4
  84. Format                                   : PGS
  85. Codec ID                                 : S_HDMV/PGS
  86. Codec ID/Info                            : Picture based subtitle format used on BDs/HD-DVDs
  87. Duration                                 : 1 h 31 min
  88. Bit rate                                 : 21.5 kb/s
  89. Count of elements                        : 1984
  90. Stream size                              : 14.1 MiB (0%)
  91. Title                                    : Cht/SUP  原盘繁体
  92. Language                                 : Chinese
  93. Default                                  : Yes
  94. Forced                                   : No
  95. Text #2
  96. ID                                       : 5
  97. Format                                   : PGS
  98. Codec ID                                 : S_HDMV/PGS
  99. Codec ID/Info                            : Picture based subtitle format used on BDs/HD-DVDs
  100. Duration                                 : 1 h 31 min
  101. Bit rate                                 : 25.0 kb/s
  102. Count of elements                        : 1983
  103. Stream size                              : 16.3 MiB (0%)
  104. Title                                    : Eng/SUP
  105. Language                                 : English
  106. Default                                  : No
  107. Forced                                   : No
  108. Menu
  109. 00:00:00.000                             : en:第 01 章
  110. 00:07:45.667                             : en:第 02 章
  111. 00:16:51.125                             : en:第 03 章
  112. 00:23:23.042                             : en:第 04 章
  113. 00:33:23.750                             : en:第 05 章
  114. 00:42:36.250                             : en:第 06 章
  115. 00:50:04.667                             : en:第 07 章
  116. 00:58:10.917                             : en:第 08 章
  117. 01:06:09.583                             : en:第 09 章
  118. 01:14:51.833                             : en:第 10 章
  119. 01:22:15.667                             : en:第 11 章
  120. 01:31:44.208                             : en:第 12 章

复制代码


致青春[共2部合集][国语音轨/繁英字幕].So.Young.1-2.2013-2016.BluRay.1080p.DTS-HD.MA.5.1.x265.10bit-AL ...

致青春[共2部合集][国语音轨/繁英字幕].So.Young.1-2.2013-2016.BluRay.1080p.DTS-HD.MA.5.1.x265.10bit-AL ...

致青春[共2部合集][国语音轨/繁英字幕].So.Young.1-2.2013-2016.BluRay.1080p.DTS-HD.MA.5.1.x265.10bit-AL ...

致青春[共2部合集][国语音轨/繁英字幕].So.Young.1-2.2013-2016.BluRay.1080p.DTS-HD.MA.5.1.x265.10bit-AL ...



蓝光高清网提示您 点击下方附件即可下载

致青春[共2部合集][国语音轨/繁英字幕].So.Young.1-2.2013-2016.BluRay.1080p.DTS-HD.MA.5.1.x265.10bit-ALT 21.75GB

致青春[共2部合集][国语音轨 繁英字幕].So.Young.1-2.2013-2016.BluRay.1080p.DTS-HD.torrent ( 55.44 KB )

加入蓝光高清网VIP会员  无限制下载本站所有资源---点这里

资源下载、资源播放、字幕使用、无法下载等常见问题---点这里
回复

使用道具 举报

全部回复0 显示全部楼层

发表回复

您需要登录后才可以回帖 登录 | 立即注册

本版积分规则

开通会员 帮助中心 返回顶部 返回列表