蓝光高清网

搜索
开启左侧

荒野迷案 4k.Outer.Range.S01E01.HDR.2160P.WEB.H265-4k美剧下载-5.2GB

蓝鸟 发表于 2022-5-7 11:43:30 | 显示全部楼层 |阅读模式
荒野迷案 豆瓣评分: 7.0分

状态:第一季(完结)
上映时间:2022-04-15
类型:剧情 悬疑 
地区:美国
导演:未知
主演:乔什·布洛林 / 伊莫琴·普茨 / 莉莉·泰勒 / 汤姆·派福瑞 / 塔玛拉·波戴米斯基
画质标准:4K(3840x2160) 封装音轨:5.1声道 音轨编码:其他DD
剧情简介
  Brad Pitt制片公司Plan B Entertainment过去宣布为Amazon开发新剧《外围 Outer Range》,这部惊悚剧由Brian Watkins负责,剧集讲述一名待在怀俄明州荒野的牧场主因为发现这儿隐藏着谜团,紧接着他决心为了自己土地及家人而战。Josh Brolin加盟剧组,饰演主角Royal Abbott。....
影片参数
荒野迷案4k.Outer.Range.S01E01.HDR.2160P.WEB.H265-4k美剧信息
Video
ID : 1
Format : HEVC
Format/Info : High Efficiency Video Coding
Format profile : Main 10@L5@Main
HDR format : SMPTE ST 2094 App 4, Version 1, HDR10+ Profile B compatible
Codec ID : V_MPEGH/ISO/HEVC
Duration : 57 min 35 s
Bit rate : 14.2 Mb/s
Width : 3 840 pixels
Height : 2 160 pixels
Display aspect ratio : 16:9
Frame rate mode : Constant
Frame rate : 24.000 FPS
Color space : YUV
Chroma subsampling : 4:2:0
Bit depth : 10 bits
Bits/(Pixel*Frame) : 0.071
Stream size : 5.72 GiB (96%)
Default : Yes
Forced : No
Color range : Limited
Color primaries : BT.2020
Transfer characteristics : PQ
Matrix coefficients : BT.2020 non-constant
Mastering display color primaries : Display P3
Mastering display luminance : min: 0.0001 cd/m2, max: 1000 cd/m2
Maximum Content Light Level : 622 cd/m2
Maximum Frame-Average Light Level : 1000 cd/m2


Text #19
ID : 21
Format : UTF-8
Codec ID : S_TEXT/UTF8
Codec ID/Info : UTF-8 Plain Text
Duration : 56 min 2 s
Bit rate : 32 b/s
Count of elements : 466
Stream size : 13.4 KiB (0%)
Title : Swedish (Sweden)
Language : Swedish
Default : No
Forced : No


Text #20
ID : 22
Format : UTF-8
Codec ID : S_TEXT/UTF8
Codec ID/Info : UTF-8 Plain Text
Duration : 56 min 2 s
Bit rate : 36 b/s
Count of elements : 471
Stream size : 14.9 KiB (0%)
Title : Turkish (Turkey)
Language : Turkish
Default : No
Forced : No


Text #21
ID : 23
Format : UTF-8
Codec ID : S_TEXT/UTF8
Codec ID/Info : UTF-8 Plain Text
Duration : 56 min 2 s
Bit rate : 30 b/s
Count of elements : 469
Stream size : 12.6 KiB (0%)
Title : Czech (Czechia)
Language : Czech
Default : No
Forced : No


Text #22
ID : 24
Format : UTF-8
Codec ID : S_TEXT/UTF8
Codec ID/Info : UTF-8 Plain Text
Duration : 56 min 2 s
Bit rate : 61 b/s
Count of elements : 465
Stream size : 25.2 KiB (0%)
Title : Greek (Greece)
Language : Greek
Default : No
Forced : No


Text #23
ID : 25
Format : UTF-8
Codec ID : S_TEXT/UTF8
Codec ID/Info : UTF-8 Plain Text
Duration : 56 min 2 s
Bit rate : 55 b/s
Count of elements : 472
Stream size : 22.8 KiB (0%)
Title : Russian (Russia)
Language : Russian
Default : No
Forced : No


Text #24
ID : 26
Format : UTF-8
Codec ID : S_TEXT/UTF8
Codec ID/Info : UTF-8 Plain Text
Duration : 56 min 2 s
Bit rate : 50 b/s
Count of elements : 472
Stream size : 20.9 KiB (0%)
Title : Hebrew (Israel)
Language : Hebrew
Default : No
Forced : No


Text #25
ID : 27
Format : UTF-8
Codec ID : S_TEXT/UTF8
Codec ID/Info : UTF-8 Plain Text
Duration : 56 min 2 s
Bit rate : 58 b/s
Count of elements : 472
Stream size : 24.2 KiB (0%)
Title : Arabic (world)
Language : Arabic
Default : No
Forced : No


Text #26
ID : 28
Format : UTF-8
Codec ID : S_TEXT/UTF8
Codec ID/Info : UTF-8 Plain Text
Duration : 56 min 2 s
Bit rate : 81 b/s
Count of elements : 472
Stream size : 33.5 KiB (0%)
Title : Hindi (India)
Language : Hindi
Default : No
Forced : No


Text #27
ID : 29
Format : UTF-8
Codec ID : S_TEXT/UTF8
Codec ID/Info : UTF-8 Plain Text
Duration : 56 min 2 s
Bit rate : 85 b/s
Count of elements : 472
Stream size : 35.1 KiB (0%)
Title : Tamil (India)
Language : Tamil
Default : No
Forced : No


Text #28
ID : 30
Format : UTF-8
Codec ID : S_TEXT/UTF8
Codec ID/Info : UTF-8 Plain Text
Duration : 56 min 2 s
Bit rate : 89 b/s
Count of elements : 472
Stream size : 36.7 KiB (0%)
Title : Telugu (India)
Language : Telugu
Default : No
Forced : No


Text #29
ID : 31
Format : UTF-8
Codec ID : S_TEXT/UTF8
Codec ID/Info : UTF-8 Plain Text
Duration : 56 min 2 s
Bit rate : 81 b/s
Count of elements : 472
Stream size : 33.5 KiB (0%)
Title : Thai (Thailand)
Language : Thai
Default : No
Forced : No


Text #30
ID : 32
Format : UTF-8
Codec ID : S_TEXT/UTF8
Codec ID/Info : UTF-8 Plain Text
Duration : 56 min 2 s
Bit rate : 33 b/s
Count of elements : 472
Stream size : 13.9 KiB (0%)
Title : Chinese (Simplified)
Language : Chinese
Default : No
Forced : No


Text #31
ID : 33
Format : UTF-8
Codec ID : S_TEXT/UTF8
Codec ID/Info : UTF-8 Plain Text
Duration : 56 min 2 s
Bit rate : 33 b/s
Count of elements : 471
Stream size : 13.8 KiB (0%)
Title : Chinese (Traditional)
Language : Chinese
Default : No
Forced : No


Text #32
ID : 34
Format : UTF-8
Codec ID : S_TEXT/UTF8
Codec ID/Info : UTF-8 Plain Text
Duration : 56 min 2 s
Bit rate : 28 b/s
Count of elements : 502
Stream size : 11.5 KiB (0%)
Title : Japanese (Japan)
Language : Japanese
Default : No
Forced : No


Text #33
ID : 35
Format : UTF-8
Codec ID : S_TEXT/UTF8
Codec ID/Info : UTF-8 Plain Text
Duration : 56 min 2 s
Bit rate : 40 b/s
Count of elements : 472
Stream size : 16.7 KiB (0%)
Title : Korean (South Korea)
Language : Korean
Default : No
Forced : No


蓝光高清网提示您 点击下方附件名称 即可开始下载


荒野迷案4k.Outer.Range.S01E01.HDR.2160P.WEB.H265-4k美剧下载

荒野迷案4k.Outer.Range.S01E01.HDR.2160P.WEB.H265【5.98 GB】

荒野迷案4k.Outer.Range.S01E01.HDR.2160P.WEB.H265-POKE.torrent ( 15.64 KB )



荒野迷案4k.Outer.Range.S01E02.HDR.2160P.WEB.H265【4.43 GB】

荒野迷案4k.Outer.Range.S01E02.HDR.2160P.WEB.H265-POKE.torrent ( 22.85 KB )



荒野迷案4k.Outer.Range.S01E03.HDR.2160p.WEB.H265【4.80GB】

荒野迷案4k.Outer.Range.S01E03.HDR.2160p.WEB.H265-GLHF.torrent ( 24.7 KB )



荒野迷案4k.Outer.Range.S01E04.HDR.2160p.WEB.H265【6.53 GB】

荒野迷案4k.Outer.Range.S01E04.HDR.2160p.WEB.H265-GLHF.torrent ( 17.04 KB )



荒野迷案4k.Outer.Range.S01E05.HDR.2160p.WEB.H265【4.28 GB】

荒野迷案4k.Outer.Range.S01E05.HDR.2160p.WEB.H265.torrent ( 22.14 KB )



荒野迷案4k.Outer.Range.S01E06.HDR.2160p.WEB.H265【4.28GB】

荒野迷案4k.Outer.Range.S01E06.HDR.2160p.WEB.H265.torrent ( 22.14 KB )



荒野迷案4k.Outer.Range.S01E07.HDR.2160p.WEB.H265【5.21 GB】

荒野迷案4k.Outer.Range.S01E08.HDR.2160p.WEB.H265-GLHF.torrent ( 14.93 KB )



荒野迷案4k.Outer.Range.S01E08.HDR.2160p.WEB.H265【5.68 GB】

荒野迷案4k.Outer.Range.S01E07.HDR.2160p.WEB.H265-GLHF.torrent ( 13.76 KB )


加入蓝光高清网VIP会员  无限制下载本站所有资源---点这里

资源下载、资源播放、字幕使用、无法下载等常见问题---点这里
回复

使用道具 举报

全部回复1 显示全部楼层
gdlmxia 发表于 2022-5-7 12:08:19 | 显示全部楼层
太好啦&萬分感謝版主的無私發佈分享%
回复 支持 反对

使用道具 举报

发表回复

您需要登录后才可以回帖 登录 | 立即注册

本版积分规则

联系客服 关注微信 下载APP 返回顶部 返回列表