蓝光高清网

搜索
开启左侧

天堂旗帜下4k.Under.the.Banner.of.Heaven.S01E01.2160p.WEB.h265-4k美剧下载7.59 GB

蓝鸟 发表于 2022-5-7 11:52:17 | 显示全部楼层 |阅读模式
天堂旗帜下 豆瓣评分: 8.5分

状态:第一季(更新至第2集 共7集)
上映时间:2022-04-28
类型:剧情 犯罪 悬疑 
地区:美国
导演:大卫·马肯兹 / 伊莎贝尔·桑多瓦
主演:安德鲁·加菲尔德 / 黛西·埃德加-琼斯 / 吉尔·伯明翰 / 比利·豪尔 / 萨姆·沃辛顿
画质标准:4K(3840x2160) 封装音轨:5.1声道 音轨编码:其他DD
剧情简介
  本剧改编自Jon Krakauer同名书籍,将讲述一系列事件,最后导致了居住在犹他州盐湖谷郊区的Brenda Wright Lafferty(黛西·埃德加-琼斯 饰)和其宝贝女儿于1984年被谋杀。
  在Jeb Pyre警探(安德鲁·加菲尔德 饰)调查Lafferty家庭内部事务时,他揭露了一些不为人知的秘密:耶稣基督后期圣徒教会(又称摩门教)起源,和坚定信仰带来的暴力后果。作为一名虔诚的摩门教徒,Pyre发现的东西让他开始质疑自己的信仰。....
影片参数
天堂旗帜下4k.Under.the.Banner.of.Heaven.S01E01.2160p.WEB.h265-4k美剧信息
Video
ID : 1
Format : HEVC
Format/Info : High Efficiency Video Coding
Format profile : Main 10@L5.1@Main
Codec ID : V_MPEGH/ISO/HEVC
Duration : 1 h 8 min
Bit rate : 15.5 Mb/s
Width : 3 840 pixels
Height : 2 160 pixels
Display aspect ratio : 16:9
Frame rate mode : Constant
Frame rate : 23.976 (24000/1001) FPS
Color space : YUV
Chroma subsampling : 4:2:0
Bit depth : 10 bits
Bits/(Pixel*Frame) : 0.078
Stream size : 7.47 GiB (98%)
Language : English
Default : Yes
Forced : No


Audio
ID : 2
Format : E-AC-3
Format/Info : Enhanced AC-3
Commercial name : Dolby Digital Plus
Codec ID : A_EAC3
Duration : 1 h 8 min
Bit rate mode : Constant
Bit rate : 256 kb/s
Channel(s) : 6 channels
Channel layout : L R C LFE Ls Rs
Sampling rate : 48.0 kHz
Frame rate : 31.250 FPS (1536 SPF)
Compression mode : Lossy
Delay relative to video : 24 ms
Stream size : 126 MiB (2%)
Language : English
Service kind : Complete Main
Default : Yes
Forced : No


Text
ID : 3
Format : UTF-8
Codec ID : S_TEXT/UTF8
Codec ID/Info : UTF-8 Plain Text
Duration : 1 h 8 min
Bit rate : 78 b/s
Count of elements : 1339
Stream size : 39.7 KiB (0%)
Title : English
Language : English
Default : No
Forced : No


蓝光高清网提示您 点击下方附件名称 即可开始下载


天堂旗帜下4k.Under.the.Banner.of.Heaven.S01E01.2160p.WEB.h265-4k美剧下载

天堂旗帜下4k.Under.the.Banner.of.Heaven.S01E01.2160p.WEB.h265【7.59 GB】

天堂旗帜下4k.Under.the.Banner.of.Heaven.S01E01.2160p.WEB.h265-KOGi.torrent ( 19.73 KB )



天堂旗帜下4k.Under.the.Banner.of.Heaven.S01E02.2160p.WEB.H265【5.41 GB】

天堂旗帜下4k.Under.the.Banner.of.Heaven.S01E02.2160p.WEB.H265-GGEZ.torrent ( 14.28 KB )



天堂旗帜下4k.Under.the.Banner.of.Heaven.S01E02.REPACK.2160p.WEB.H265【5.41 GB】

天堂旗帜下4k.Under.the.Banner.of.Heaven.S01E02.REPACK.2160p.WEB.H265.torrent ( 14.28 KB )



加入蓝光高清网VIP会员  无限制下载本站所有资源---点这里

资源下载、资源播放、字幕使用、无法下载等常见问题---点这里
回复

使用道具 举报

全部回复0 显示全部楼层

发表回复

您需要登录后才可以回帖 登录 | 立即注册

本版积分规则

联系客服 关注微信 下载APP 返回顶部 返回列表