蓝光高清网

搜索
开启左侧

了不起 / Big Deal / I Love This For You/因你而爱4k.I.Love.That.For.You.S01E01.HDR.2160p.WEB.H265-4k电影下载-3.21 GB

蓝鸟 发表于 2022-5-7 11:56:30 | 显示全部楼层 |阅读模式
因你而爱 豆瓣评分: 无评分

状态:第一季(更新至第2集 共?集)
上映时间:2022-04-29
类型:喜剧 
地区:美国
导演:迈克尔·肖沃特
主演:瓦妮莎·贝尔 / 马特·罗杰斯 / 帕纳姆·帕特尔 / 艾登·梅耶里 / 保罗·詹姆斯
画质标准:4K(3840x2160) 封装音轨:5.1声道 音轨编码:其他DD
剧情简介
  曾经在《SNL》的Vanessa Bayer参演Showtime单镜头喜剧试映集《因你而爱 I Love This For You》(前名《了不起 Big Deal》),这部剧由Vanessa Bayer及前《周六夜现场》编剧Jeremy Beiler共同主创﹑Michael Showalter执导。
  《因你而爱》讲述女主(Vanessa Bayer饰)克服小时患上的白血病,达成登上QVC(电视购物公司)节目当主持人的梦想。今天Punam Patel及Matt Rogers加盟剧组。
  Punam Patel饰演古怪的后台制作人Tami﹑Matt Rogers饰演电视购物公司频道CEO的左右手Darcy。....
影片参数
了不起 / Big Deal / I Love This For You/因你而爱4k.I.Love.That.For.You.S01E01.HDR.2160p.WEB.H265-4k电影信息
Video
ID : 1
Format : HEVC
Format/Info : High Efficiency Video Coding
Format profile : Main 10@L5@Main
HDR format : SMPTE ST 2086, HDR10 compatible
Codec ID : V_MPEGH/ISO/HEVC
Duration : 31 min 27 s
Bit rate : 13.9 Mb/s
Width : 3 840 pixels
Height : 2 160 pixels
Display aspect ratio : 16:9
Frame rate mode : Constant
Frame rate : 23.976 (24000/1001) FPS
Color space : YUV
Chroma subsampling : 4:2:0
Bit depth : 10 bits
Bits/(Pixel*Frame) : 0.070
Stream size : 3.06 GiB (95%)
Writing library : x265 3.4hy:[Linux][GCC 7.5.0][64 bit] 10bit
Encoding settings : cpuid=1111039 / frame-threads=6 / no-wpp / no-pmode / no-pme / no-psnr / no-ssim / log-level=2 / input-csp=1 / input-res=3840x2160 / interlace=0 / total-frames=0 / level-idc=0 / high-tier=1 / uhd-bd=0 / ref=4 / no-allow-non-conformance / repeat-headers / annexb / aud / hrd / info / hash=0 / no-temporal-layers / no-open-gop / min-keyint=48 / keyint=48 / gop-lookahead=0 / bframes=4 / b-adapt=2 / b-pyramid / bframe-bias=0 / rc-lookahead=48 / lookahead-slices=4 / scenecut=0 / hist-scenecut=0 / radl=0 / no-splice / no-intra-refresh / ctu=64 / min-cu-size=8 / rect / no-amp / max-tu-size=32 / tu-inter-depth=1 / tu-intra-depth=1 / limit-tu=0 / rdoq-level=2 / dynamic-rd=0.00 / no-ssim-rd / signhide / no-tskip / nr-intra=100 / nr-inter=400 / no-constrained-intra / strong-intra-smoothing / max-merge=3 / limit-refs=3 / limit-modes / me=3 / subme=3 / merange=57 / temporal-mvp / no-frame-dup / no-hme / weightp / no-weightb / no-analyze-src-pics / deblock=0:0 / sao / no-sao-non-deblock / rd=4 / selective-sao=4 / no-early-skip / rskip / no-fast-intra / no-tskip-fast / no-cu-lossless / no-b-intra / no-splitrd-skip / rdpenalty=0 / psy-rd=0.00 / psy-rdoq=1.00 / no-rd-refine / no-lossless / cbqpoffs=0 / crqpoffs=3 / rc=abr / bitrate=15000 / qcomp=0.60 / qpstep=4 / stats-write=0 / stats-read=2 / cplxblur=20.0 / qblur=0.5 / vbv-maxrate=18000 / vbv-bufsize=12000 / vbv-init=0.6 / vbv-end=0.6 / vbv-end-fr-adj=0.0 / ipratio=1.40 / pbratio=1.30 / aq-mode=2 / aq-strength=1.00 / cutree / zone-count=0 / no-strict-cbr / qg-size=32 / no-rc-grain / qpmax=69 / qpmin=0 / no-const-vbv / sar=1 / overscan=0 / videoformat=5 / range=0 / colorprim=9 / transfer=16 / colormatrix=9 / chromaloc=0 / display-window=0 / master-display=G(8500,39850)B(6550,2300)R(35400,14600)WP(15635,16450)L(10000000,1) / cll=566,220 / min-luma=0 / max-luma=1023 / log2-max-poc-lsb=8 / vui-timing-info / vui-hrd-info / no-concatenation / slices=1 / no-opt-qp-pps / no-opt-ref-list-length-pps / no-multi-pass-opt-rps / scenecut-bias=0.05 / hist-threshold=0.01 / no-opt-cu-delta-qp / no-aq-motion / hdr10 / no-hdr10-opt / no-dhdr10-opt / no-idr-recovery-sei / analysis-reuse-level=0 / analysis-save-reuse-level=0 / analysis-load-reuse-level=0 / scale-factor=0 / refine-intra=0 / refine-inter=0 / refine-mv=1 / refine-ctu-distortion=0 / no-limit-sao / ctu-info=0 / no-lowpass-dct / refine-analysis-type=0 / copy-pic=1 / max-ausize-factor=1.0 / no-dynamic-refine / no-single-sei / no-hevc-aq / no-svt / no-field / qp-adaptation-range=1.00 / no-scenecut-aware-qpconformance-window-offsets / right=0 / bottom=0 / decoder-max-rate=0
Default : Yes
Forced : No
Color range : Limited
Color primaries : BT.2020
Transfer characteristics : PQ
Matrix coefficients : BT.2020 non-constant
Mastering display color primaries : BT.2020
Mastering display luminance : min: 0.0001 cd/m2, max: 1000 cd/m2
Maximum Content Light Level : 566 cd/m2
Maximum Frame-Average Light Level : 220 cd/m2


Audio
ID : 2
Format : AC-3
Format/Info : Audio Coding 3
Commercial name : Dolby Digital
Codec ID : A_AC3
Duration : 31 min 27 s
Bit rate mode : Constant
Bit rate : 384 kb/s
Channel(s) : 6 channels
Channel layout : L R C LFE Ls Rs
Sampling rate : 48.0 kHz
Frame rate : 31.250 FPS (1536 SPF)
Compression mode : Lossy
Stream size : 86.4 MiB (3%)
Language : English
Service kind : Complete Main
Default : Yes
Forced : No


Text
ID : 3
Format : UTF-8
Codec ID : S_TEXT/UTF8
Codec ID/Info : UTF-8 Plain Text
Title : English
Language : English
Default : No
Forced : No


蓝光高清网提示您 点击下方附件名称 即可开始下载


多版本下载时请注意区分


了不起 / Big Deal / I Love This For You/因你而爱4k.I.Love.That.For.You.S01E01.HDR.2160p.WEB.H265-4k电影下载

因你而爱4k.I.Love.That.For.You.S01E01.HDR.2160p.WEB.H265.torrent ( 16.81 KB )



因你而爱4k.I.Love.That.For.You.S01E01.2160p.WEB-DL.DD5.1.DV.MP4.x265-DVSUX.torrent ( 16.74 KB )


因你而爱4k.I.Love.That.For.You.S01E01.2160p.WEB.H265.torrent ( 16.82 KB )


因你而爱4k.I.Love.That.For.You.S01E02.HDR.2160p.WEB.H265-GGEZ.torrent ( 15.95 KB )


因你而爱4k.I.Love.That.For.You.S01E02.2160p.WEB-DL.DD5.1.DV.MKV.x265-GGEZ.torrent ( 16 KB )


因你而爱4k.I.Love.That.For.You.S01E02.2160p.WEB-DL.DD5.1.DV.MP4.x265-DVSUX.torrent ( 15.94 KB )


加入蓝光高清网VIP会员  无限制下载本站所有资源---点这里

资源下载、资源播放、字幕使用、无法下载等常见问题---点这里
回复

使用道具 举报

全部回复0 显示全部楼层

发表回复

您需要登录后才可以回帖 登录 | 立即注册

本版积分规则

联系客服 关注微信 下载APP 返回顶部 返回列表