本站已运行

蓝光高清网

搜索

[喜剧] 的士速递[共5部合集][简繁字幕].Taxi.1-5.1998-2018.BluRay.1080p.DTS-HD.MA.5.1.x265.10bit-ALT 43.06GB

蓝鸟 发表于 2022-5-8 11:43:47 | 显示全部楼层 |阅读模式

的士速递[共5部合集][简繁字幕].Taxi.1-5.1998-2018.BluRay.1080p.DTS-HD.MA.5.1.x265.10bit-ALT 43.06GB ...

的士速递[共5部合集][简繁字幕].Taxi.1-5.1998-2018.BluRay.1080p.DTS-HD.MA.5.1.x265.10bit-ALT 43.06GB ...


译  名 的士速递5 / 终极杀阵5(台) / 出租车5
片  名 Taxi 5
年  代 2018
产  地 法国
类  别 喜剧 / 动作 / 犯罪
语  言 法语 / 意大利语
上映日期 2018-08-03(中国大陆) / 2018-04-11(法国)
豆瓣评分 5.3/10 (25300人评价)
片  长 100分钟(中国大陆)
导  演 弗兰克·盖思堂彼得 Franck Gastambide
编  剧 弗兰克·盖思堂彼得 Franck Gastambide
       斯特凡纳·卡赞吉安 Stéphane Kazandjian
       吕克·贝松 Luc Besson
演  员 弗兰克·盖思堂彼得 Franck Gastambide
       马利克·班泽拉 Malik Bentalha
       伯纳尔·法西 Bernard Farcy
       萨尔瓦托雷·埃斯波西托 Salvatore Esposito
       萨巴纳·奥扎尼 Sabrina Ouazani
       爱德华·蒙多特 Edouard Montoute
       朗齐·贝迪亚 Ramzy Bedia
       茂萨·马斯克里 Moussa Maaskri
       夏洛特·加布里斯 Charlotte Gabris
       桑德·范·罗伊 Sand Van Roy
       吕克·贝松 Luc Besson
       文森特·理查德 Vincent Richard
简  介
  巴黎警官西尔万(弗兰克·盖思堂彼得 饰)因执行任务的方式过于激进,被调任马赛 社区警局。赴任第一天,便遇到意大利超跑帮抢劫珠宝,劫匪驾驶着法拉利风驰电 掣,让西尔万和“各怀绝技”的警员们“望尘莫及”、出尽洋相。正当西尔万一筹 莫展之际,他结识了憨厚莽撞的出租车司机埃迪(马利克·班泽拉 饰)。两人毫无默 契,却要合力抓捕疑犯,一场状况频出、笑料横行的猫鼠游戏即刻展开......



影片参数
  1. 合集文件列表:

  2. 1.Taxi.2.2000.BluRay.1080p.DTS-HD.MA.5.1.x265.10bit-ALT.mkv 8.40GB

  3. 2.Taxi.3.2003.BluRay.1080p.TrueHD.5.1.x265.10bit-ALT.mkv 7.97GB

  4. 3.Taxi.4.2007.BluRay.1080p.TrueHD.5.1.x265.10bit-ALT.mkv 7.92GB

  5. 4.Taxi.5.2018.BluRay.1080p.TrueHD.Atmos.7.1.x265.10bit-ALT.mkv 8.91GB

  6. 5.Taxi.1998.BluRay.1080p.DTS-HD.MA.5.1.x265.10bit-ALT.mkv 9.85GB

复制代码



影片参数
  1. ##### MediaInfo ######
  2. General
  3. Unique ID                                : 17003154567448692373313167823178821119 (0xCCAB03E75840509373FEDF29CDBEDFF)
  4. Complete name                            : Taxi.2.2000.BluRay.1080p.DTS-HD.MA.5.1.x265.10bit-ALT.mkv
  5. Format                                   : Matroska
  6. Format version                           : Version 4
  7. File size                                : 8.40 GiB
  8. Duration                                 : 1 h 28 min
  9. Overall bit rate mode                    : Variable
  10. Overall bit rate                         : 13.6 Mb/s
  11. Encoded date                             : UTC 2020-08-22 00:36:19
  12. Writing application                      : mkvmerge v49.0.0 (''Sick Of Losing Soulmates'') 64-bit
  13. Writing library                          : libebml v1.4.0 + libmatroska v1.6.1
  14. Video
  15. ID                                       : 1
  16. Format                                   : HEVC
  17. Format/Info                              : High Efficiency Video Coding
  18. Format profile                           : Main [email protected]@High
  19. Codec ID                                 : V_MPEGH/ISO/HEVC
  20. Duration                                 : 1 h 28 min
  21. Bit rate                                 : 11.8 Mb/s
  22. Width                                    : 1 920 pixels
  23. Height                                   : 816 pixels
  24. Display aspect ratio                     : 2.35:1
  25. Frame rate mode                          : Constant
  26. Frame rate                               : 24.000 FPS
  27. Color space                              : YUV
  28. Chroma subsampling                       : 4:2:0
  29. Bit depth                                : 10 bits
  30. Bits/(Pixel*Frame)                       : 0.315
  31. Stream size                              : 7.31 GiB (87%)
  32. Title                                    : HEVC, [email protected]@High, 24 fps @ 11836 kbps
  33. Writing library                          : x265 3.3+1-g396395b2b:[Windows][GCC 9.2.0][64 bit] 10bit
  34. Encoding settings                        : cpuid=538751111039 / frame-threads=5 / numa-pools=44,44 / wpp / pmode / pme / no-psnr / no-ssim / log-level=2 / input-csp=1 / input-res=1920x816 / interlace=0 / total-frames=127322 / level-idc=51 / high-tier=1 / uhd-bd=0 / ref=5 / no-allow-non-conformance / no-repeat-headers / annexb / no-aud / no-hrd / info / hash=0 / no-temporal-layers / open-gop / min-keyint=24 / keyint=240 / gop-lookahead=0 / bframes=6 / b-adapt=2 / b-pyramid / bframe-bias=0 / rc-lookahead=40 / lookahead-slices=0 / NTM4NzU=uuDQuD2mJt9fsCf / scenecut=40 / hist-scenecut=0 / radl=0 / no-splice / no-intra-refresh / ctu=32 / min-cu-size=8 / no-rect / no-amp / max-tu-size=32 / tu-inter-depth=3 / tu-intra-depth=3 / limit-tu=4 / rdoq-level=2 / dynamic-rd=0.00 / no-ssim-rd / signhide / no-tskip / nr-intra=0 / nr-inter=0 / no-constrained-intra / no-strong-intra-smoothing / max-merge=4 / limit-refs=1 / limit-modes / me=3 / subme=4 / merange=25 / temporal-mvp / no-frame-dup / no-hme / weightp / weightb / no-analyze-src-pics / deblock=-3:-3 / no-sao / no-sao-non-deblock / rd=6 / selective-sao=0 / no-early-skip / rskip / no-fast-intra / no-tskip-fast / no-cu-lossless / b-intra / no-splitrd-skip / rdpenalty=0 / psy-rd=2.00 / psy-rdoq=1.00 / no-rd-refine / no-lossless / cbqpoffs=0 / crqpoffs=0 / rc=crf / crf=19.5 / qcomp=0.65 / qpstep=4 / stats-write=0 / stats-read=0 / vbv-maxrate=80000 / vbv-bufsize=80000 / vbv-init=0.9 / crf-max=0.0 / crf-min=0.0 / ipratio=1.40 / pbratio=1.30 / aq-mode=2 / aq-strength=0.85 / cutree / zone-count=0 / no-strict-cbr / qg-size=32 / no-rc-grain / qpmax=69 / qpmin=0 / no-const-vbv / sar=1 / overscan=0 / videoformat=5 / range=0 / colorprim=1 / transfer=1 / colormatrix=1 / chromaloc=0 / display-window=0 / cll=0,0 / min-luma=0 / max-luma=1023 / log2-max-poc-lsb=8 / vui-timing-info / vui-hrd-info / slices=1 / no-opt-qp-pps / no-opt-ref-list-length-pps / no-multi-pass-opt-rps / scenecut-bias=0.05 / hist-threshold=0.01 / no-opt-cu-delta-qp / no-aq-motion / no-hdr10 / no-hdr10-opt / no-dhdr10-opt / no-idr-recovery-sei / analysis-reuse-level=0 / analysis-save-reuse-level=0 / analysis-load-reuse-level=0 / scale-factor=0 / refine-intra=0 / refine-inter=0 / refine-mv=1 / refine-ctu-distortion=0 / no-limit-sao / ctu-info=0 / no-lowpass-dct / refine-analysis-type=0 / copy-pic=1 / max-ausize-factor=1.0 / no-dynamic-refine / no-single-sei / no-hevc-aq / no-svt / no-field / qp-adaptation-range=1.00 / no-scenecut-aware-qpconformance-window-offsets / right=0 / bottom=0 / NTM4NzU=
  35. Language                                 : English
  36. Default                                  : Yes
  37. Forced                                   : No
  38. Color range                              : Limited
  39. Color primaries                          : BT.709
  40. Transfer characteristics                 : BT.709
  41. Matrix coefficients                      : BT.709
  42. Audio
  43. ID                                       : 2
  44. Format                                   : DTS XLL
  45. Format/Info                              : Digital Theater Systems
  46. Commercial name                          : DTS-HD Master Audio
  47. Codec ID                                 : A_DTS
  48. Duration                                 : 1 h 28 min
  49. Bit rate mode                            : Variable
  50. Bit rate                                 : 1 707 kb/s
  51. Channel(s)                               : 6 channels
  52. Channel layout                           : C L R Ls Rs LFE
  53. Sampling rate                            : 48.0 kHz
  54. Frame rate                               : 93.750 FPS (512 SPF)
  55. Bit depth                                : 16 bits
  56. Compression mode                         : Lossless
  57. Stream size                              : 1.05 GiB (13%)
  58. Title                                    : French DTS-HD Master Audio 5.1 @ 1705 kbps
  59. Language                                 : French
  60. Default                                  : Yes
  61. Forced                                   : No
  62. Text #1
  63. ID                                       : 3
  64. Format                                   : PGS
  65. Codec ID                                 : S_HDMV/PGS
  66. Codec ID/Info                            : Picture based subtitle format used on BDs/HD-DVDs
  67. Duration                                 : 1 h 21 min
  68. Bit rate                                 : 34.0 kb/s
  69. Count of elements                        : 2734
  70. Stream size                              : 19.9 MiB (0%)
  71. Title                                    : Chs/SUP  简体
  72. Language                                 : Chinese
  73. Default                                  : Yes
  74. Forced                                   : No
  75. Text #2
  76. ID                                       : 4
  77. Format                                   : PGS
  78. Codec ID                                 : S_HDMV/PGS
  79. Codec ID/Info                            : Picture based subtitle format used on BDs/HD-DVDs
  80. Duration                                 : 1 h 21 min
  81. Bit rate                                 : 35.3 kb/s
  82. Count of elements                        : 2734
  83. Stream size                              : 20.6 MiB (0%)
  84. Title                                    : Cht/SUP  繁体
  85. Language                                 : Chinese
  86. Default                                  : No
  87. Forced                                   : No
  88. Menu
  89. 00:00:00.000                             : en:第 01 章
  90. 00:07:29.750                             : en:第 02 章
  91. 00:14:43.500                             : en:第 03 章
  92. 00:23:18.417                             : en:第 04 章
  93. 00:31:25.333                             : en:第 05 章
  94. 00:39:41.000                             : en:第 06 章
  95. 00:46:52.792                             : en:第 07 章
  96. 00:54:17.083                             : en:第 08 章
  97. 01:01:14.125                             : en:第 09 章
  98. 01:08:10.333                             : en:第 10 章
  99. 01:15:46.083                             : en:第 11 章
  100. 01:23:34.125                             : en:第 12 章

复制代码


的士速递[共5部合集][简繁字幕].Taxi.1-5.1998-2018.BluRay.1080p.DTS-HD.MA.5.1.x265.10bit-ALT 43.06GB ...

的士速递[共5部合集][简繁字幕].Taxi.1-5.1998-2018.BluRay.1080p.DTS-HD.MA.5.1.x265.10bit-ALT 43.06GB ...

的士速递[共5部合集][简繁字幕].Taxi.1-5.1998-2018.BluRay.1080p.DTS-HD.MA.5.1.x265.10bit-ALT 43.06GB ...

的士速递[共5部合集][简繁字幕].Taxi.1-5.1998-2018.BluRay.1080p.DTS-HD.MA.5.1.x265.10bit-ALT 43.06GB ...



蓝光高清网提示您 点击下方附件即可下载

的士速递[共5部合集][简繁字幕].Taxi.1-5.1998-2018.BluRay.1080p.DTS-HD.MA.5.1.x265.10bit-ALT 43.06GB

的士速递[共5部合集][简繁字幕].Taxi.1-5.1998-2018.BluRay.1080p.DTS-HD.MA.5.1.x265.torrent ( 108.96 KB )

加入蓝光高清网VIP会员  无限制下载本站所有资源---点这里

资源下载、资源播放、字幕使用、无法下载等常见问题---点这里
回复

使用道具 举报

全部回复0 显示全部楼层

发表回复

您需要登录后才可以回帖 登录 | 立即注册

本版积分规则

楼主

超级版主

热门推荐

开通会员 帮助中心 返回顶部 返回列表