蓝光高清网

搜索
开启左侧

露西上太空(台) / 淡蓝色圆点 / Pale Blue Dot/天空中的露西4k.Lucy.in.the.Sky.2019.2160p.WEB-DL.x265.10bit.HDR.DDP5.1-4k电影下载-14.25 GB

蓝鸟 发表于 2022-5-10 10:42:49 | 显示全部楼层 |阅读模式
天空中的露西 豆瓣评分: 5.7分
上映时间:2019年
类型:剧情 科幻 
地区:美国 
导演:诺亚·霍利
主演:娜塔莉·波特曼 / 乔恩·哈姆 / 丹·史蒂文斯 / 莎姬·贝兹 / 艾伦·伯斯汀
画质标准:4K HDR  封装音轨:Dolby TrueHD 5.1 
简       介: D5 n$ B1 u6 }5 R

! [' t/ X8 [% A8 _  影片讲述娜塔莉·波特曼饰演的女宇航员从太空中完成任务返回地球后,逐渐偏离原生活轨迹,现实感逐渐消失的故事。" ?: e5 Z# y4 X/ ]4 q+ E1 e8 y

- o2 F7 s4 O! M
/ j& d* P6 d! ?* t
影片参数
7 z8 T! ?& J- c0 G3 i: x
露西上太空(台) / 淡蓝色圆点 / Pale Blue Dot/天空中的露西4k.Lucy.in.the.Sky.2019.2160p.WEB-DL.x265.10bit.HDR.DDP5.1-4k电影信息! T2 a$ n, N* R. j' E1 T
Video
; g$ Z/ t: y& O; N1 ~% W- ~ID : 1
) I2 x# q9 O) H2 j% W$ ?' ~Format : HEVC
* \; `+ [" N- H& H4 s4 ^Format/Info : High Efficiency Video Coding7 n2 t/ k# j; g( ^8 v: w6 g+ S9 x. X
Format profile : Main 10@L5@High
2 `+ K8 S( P4 Z! d, n% j! ]HDR format : SMPTE ST 2086, HDR10 compatible
$ c; y) Q9 r: q. q6 k* V/ yCodec ID : V_MPEGH/ISO/HEVC: E, Y7 f' h# N3 f8 `, `
Duration : 2 h 4 min9 l1 g, w$ M; x; j
Bit rate : 16.1 Mb/s
. a8 W! x4 I- o# eWidth : 3 840 pixels8 A' y6 M# s6 E) B1 b2 k
Height : 2 160 pixels, m! ~  `" S( `9 @$ ?
Display aspect ratio : 16:9
3 @# L: g4 `( u$ m/ s: _Frame rate mode : Constant
! q4 l+ m0 H0 f* {$ O& ]Frame rate : 23.976 (24000/1001) FPS, _, r4 T: U: C
Color space : YUV
# }) W3 I, e" M9 k& m2 b5 @Chroma subsampling : 4:2:0
: c/ L* w& U6 s9 |7 tBit depth : 10 bits5 u' j0 z+ |) d" t+ L! O$ J
Bits/(Pixel*Frame) : 0.081
9 _+ O) h2 p+ y% L) M; W/ Y0 h1 x! K- DStream size : 14.0 GiB (98%)( I& o: X  Q+ m. {
Language : English
) d) _+ J6 \4 v/ iDefault : Yes
9 J9 v3 s# L) G7 b2 k- N: h4 ?: NForced : No0 J$ v% b+ C. r& U# C; y4 |: X
Color range : Limited
6 q9 v& @) ^0 pColor primaries : BT.2020; N( k& {/ T- I" E2 W
Transfer characteristics : PQ& p# N2 N' m/ D
Matrix coefficients : BT.2020 non-constant
& l. O9 I- h5 h2 e0 o% CMastering display color primaries : Display P3
, G, C; Q4 A! n% @5 T: H" ?Mastering display luminance : min: 0.0050 cd/m2, max: 1000 cd/m2% D3 \+ |8 U! z' S# T4 @

) t7 d7 v+ u/ F" Q
7 ~& n2 P0 X: x; C" J, @, G- }
Audio
: R+ N5 `/ P3 p6 v7 L2 u; [/ s* G, gID : 2
( y/ e& z5 x0 O2 ?+ D- e1 FFormat : E-AC-3
, J2 B6 ]: F2 r0 ?6 j/ x% ?0 xFormat/Info : Enhanced AC-3* e; M2 s1 u- j/ e+ l7 S3 V% g
Commercial name : Dolby Digital Plus
3 Y8 k( h$ D- Q0 O* y3 BCodec ID : A_EAC31 Q/ p; b. B7 Q6 L9 l7 B
Duration : 2 h 4 min2 d' L  ]) l# M5 o7 O; l; Y
Bit rate mode : Constant
: U2 z% b% M# R- rBit rate : 256 kb/s
: h" Y. q9 r5 |7 L/ \Channel(s) : 6 channels% H8 [3 g9 W2 e. Q2 t
Channel layout : L R C LFE Ls Rs
% I' u( E, A0 r' I6 P, I) JSampling rate : 48.0 kHz
* Z% C7 X) a4 `+ QFrame rate : 31.250 FPS (1536 SPF)0 @) x" I4 ]+ y  y% Y
Compression mode : Lossy
& h( N$ |( [, n! @: a% NStream size : 229 MiB (2%)
6 J. X5 [) l0 P6 C3 T2 F6 }2 N" a; jLanguage : English! N8 T4 H! c  }, i7 H4 H
Service kind : Complete Main
5 C$ r5 O; Y; m' cDefault : Yes6 B6 w' J; P. I$ B8 P
Forced : No# C8 u* [* Q% u+ ?! S
& e; j2 R% s: g% J# |0 e
" ?! i1 J; T7 Q1 ^( K( ?
Text #1. W8 h/ I' \/ w5 H2 c6 ]
ID : 3& g. x8 b0 O2 ^
Format : UTF-8
; L! Z8 W7 i, G( ^( nCodec ID : S_TEXT/UTF8
+ `6 z- z2 c" z( G4 JCodec ID/Info : UTF-8 Plain Text
* X" L; V5 Z( EDuration : 2 h 4 min
8 ]6 J( J8 m" ]1 _Bit rate : 35 b/s  g" I( ^% }: n; a; G' a
Count of elements : 1420- v% i5 o8 W( W" W. v0 q
Stream size : 32.9 KiB (0%)
& Q( P0 ^8 v7 `5 [# MTitle : Chinese (Hong Kong)3 _( o) p5 O7 U2 E: c0 Q9 u/ V
Language : Chinese
3 z% |3 i3 Y% l+ BDefault : No
, @# N- W; A( v: R; n1 N3 LForced : No
8 O7 y( A  q# [4 J; T7 P; n$ d8 @6 R( X
$ O4 F$ z6 E( c! O  q
Text #2) C% _4 s) ~, n: U, C
ID : 4
0 l  p* w! M/ `1 V4 fFormat : UTF-8
# I% k2 u/ g# j8 UCodec ID : S_TEXT/UTF8
4 R8 e# R; J6 o* P% `Codec ID/Info : UTF-8 Plain Text
3 z2 x, d8 V/ }; w  GDuration : 2 h 4 min
/ ~& h7 C: M, U+ iBit rate : 41 b/s
! Y5 [( Y5 y  C. ^# P9 ~Count of elements : 1448
% i( |4 K! T; E0 Z! C2 RStream size : 38.1 KiB (0%)* M) `6 a6 I+ ?+ g. B- Z
Title : Chinese (Simplified)
( u8 J$ M2 z& f, MLanguage : Chinese7 y9 o. w6 Z# Z8 n& `- o% W
Default : No
, g+ @: M8 W& _7 C& u3 R( l' [Forced : No
( v# B* p4 I* k6 s2 G$ i4 M
) H5 e; Y( R% X/ I+ T) E& A4 E

6 F2 i  @9 ~) X2 u1 r( d, c3 zText #3+ C# G' b: ~5 G; C9 Z$ F  p6 R
ID : 5
5 c3 Q" u9 K6 P- \& b$ W* cFormat : UTF-8& Q$ x+ D5 x. s. F6 [) H0 i: C
Codec ID : S_TEXT/UTF8! r) o  s# T7 A& J, R; l
Codec ID/Info : UTF-8 Plain Text+ b/ b& }# S# @$ W' r
Duration : 1 h 59 min
3 R% A+ A; s7 X+ A# B' h0 jBit rate : 1 b/s& E" K8 v  Z  _8 |" m
Count of elements : 47
  ?. Q/ A7 W% d* ]Stream size : 1.57 KiB (0%)' L; B& M* G9 K* A) Q( ^
Title : Czech forced
7 h3 j6 \5 e9 U2 ULanguage : Czech
) n% t. W3 V0 D2 V4 m4 C+ TDefault : No$ c) }3 |( V- _5 ]! X7 N+ z, w6 b
Forced : No
3 m1 g+ \1 M2 R2 Z4 k0 `. t5 D6 z: ]# w/ d

( A% i5 n1 l( T" m& @* h( ]- qText #4
6 x. k; d0 X" `2 R( |ID : 6
7 C0 x( ?7 ^3 rFormat : UTF-8
6 V6 N  V, J4 p. X, jCodec ID : S_TEXT/UTF80 t3 M# U  c) p, \# {# s0 k7 R/ B
Codec ID/Info : UTF-8 Plain Text& `- o+ {- @/ D- b5 s' B3 a
Duration : 2 h 4 min. {+ _) x5 C7 P
Bit rate : 42 b/s
- o' w5 O" Y: @* e; cCount of elements : 1427- I3 W/ r6 f/ z% z
Stream size : 39.1 KiB (0%)
8 e. F+ j# P8 Q' @# ETitle : Danish
! G  t* J' Y4 H4 ~: V* U8 ZLanguage : Danish7 ?" I3 h) D' _* R
Default : No% p! c! L- b  s% `
Forced : No  a$ ~& m" C4 X- ^9 R4 h
  U$ ]& \5 G7 q8 R8 D

* q! x/ ~; Y* e, JText #5% X, o  q9 c7 l! m5 i+ F# v
ID : 7
2 N* i6 |2 Q9 ?1 s: w: [, YFormat : UTF-8
9 i: x" \. V: j" d6 {% J4 Z7 C+ V3 OCodec ID : S_TEXT/UTF8$ s- R2 E# e/ f) a1 k- I. y
Codec ID/Info : UTF-8 Plain Text/ }% \2 ~! u3 k: g" z/ S3 e
Duration : 2 h 4 min+ Q& w4 y) w7 Z  M
Bit rate : 1 b/s
8 B8 n0 r6 U( qCount of elements : 49
# Q  L: J9 G: }1 k; N; m" p8 zStream size : 1.61 KiB (0%)1 w, p. S3 T; _- U# F9 B+ N0 V; Q2 [
Title : German forced
9 e$ _1 P2 E5 t' \5 K- ?( YLanguage : German
* k2 R; q3 X3 BDefault : No
' ]1 @5 i8 |9 E7 l* J7 ?Forced : No
3 z! ^% R3 `7 K) p
2 Z- w8 t0 N/ [* K% ~; M

7 g8 w) P; ?( E- vText #6) d. S/ k0 c/ Y/ _6 r' F7 Y% n
ID : 8/ U: s& d  m; Q( Z5 \* t
Format : UTF-8
# C- D+ z4 E2 B3 A; M* PCodec ID : S_TEXT/UTF8
% |9 Z' H1 P# r( x: y7 gCodec ID/Info : UTF-8 Plain Text& u8 a2 W1 Y" X
Duration : 2 h 4 min0 M. U( h, b& y1 l5 Q% H8 t5 J* R
Bit rate : 42 b/s
7 F; D5 Q& E/ b" p; ?: |3 PCount of elements : 1349
/ E( t$ u8 t9 [! n  g, i* ^) B+ WStream size : 38.6 KiB (0%): @  M: u* g2 J8 [/ u
Title : German
$ A: ?6 M" q) h6 GLanguage : German, h9 ]# {) C. ^6 @! ?3 I4 c7 `
Default : No
. i9 ^+ x" X. ^6 v- eForced : No
/ i5 ]+ A, }; i: W1 ?1 T) q0 X8 e

  _4 w2 d9 |3 \2 `  G( L2 m蓝光高清网提示您 点击下方附件名称 即可开始下载4 t% ?2 ~8 Q2 G4 s0 q+ ?0 I( c6 H6 r
! P; R. x( p4 L. p* L* m, l) U$ V
3 g4 M- H+ e% Q4 D1 k+ A
多版本下载时请注意区分, O& Y) p# t8 j. @# c

4 v" W- L; y, ~. v. `4 }4 s" `

. o1 @5 Z/ c' N! [0 g! V露西上太空(台) / 淡蓝色圆点 / Pale Blue Dot/天空中的露西4k.Lucy.in.the.Sky.2019.2160p.WEB-DL.x265.10bit.HDR.DDP5.1-4k电影下载' `, X5 ~1 q; ]& Y/ W6 }7 K2 R
3 q4 t0 r; R# C8 p6 y
天空中的露西4k.Lucy.in.the.Sky.2019.2160p.WEB-DL.x265.10bit.HDR.DDP5.1自带简繁中字【4k HDR 14.25 GB】
2 M" e! @5 B( O, k# v( F

天空中的露西4k.Lucy.in.the.Sky.2019.2160p.WEB-DL.x265.10bit.HDR.DDP5.1-RVKD.torrent ( 18.53 KB )

' x* V  P% Y7 G( Q. t# C

6 o7 K, H8 f% M! u$ o6 x/ |3 l% ]天空中的露西4k.Lucy.in.the.Sky.2019.2160p.WEB-DL.DDP5.1.DV.MP4.x265【4k 杜比视界  14.60GB】& B$ }! C- E  t. s: m

天空中的露西4k.Lucy.in.the.Sky.2019.2160p.WEB-DL.DDP5.1.DV.MP4.x265-DVSUX.torrent ( 18.9 KB )

! b" c) i) H# ^+ b) p) _7 l% E
% E* P8 E/ N2 L* `5 ^# j4 A
天空中的露西4k.Lucy.in.the.Sky.2019.2160p.WEB-DL.DDP5.1.DV.MKV.x265【4k杜比视界 14.59 GB】
; i( c" N  v3 z! D

天空中的露西4k.Lucy.in.the.Sky.2019.2160p.WEB-DL.DDP5.1.DV.MKV.x265-RVKD.torrent ( 18.88 KB )


2 ^  b  D9 R% |/ }# @7 H. r2 J2 W/ [3 A! s6 M4 Y
天空中的露西中文字幕下载: k0 p3 G  {! U+ s0 `

Lucy.In.The.Sky.2019.1080p.WEB-DL.DD5.1.H264-FGT.zip ( 388.28 KB )

; v$ ~- h! W- o8 n  j7 S
$ U1 V" F% a1 j3 P, I( v# f
加入蓝光高清网VIP会员  无限制下载本站所有资源---点这里

资源下载、资源播放、字幕使用、无法下载等常见问题---点这里
回复

使用道具 举报

全部回复6 显示全部楼层
gdlmxia 发表于 2022-5-10 16:16:29 | 显示全部楼层
太好啦&萬分感謝版主的無私發佈分享%
回复 支持 反对

使用道具 举报

PCHUN 发表于 2022-5-11 00:23:28 | 显示全部楼层
謝謝樓主分享
回复 支持 反对

使用道具 举报

dongshouba手机认证 发表于 2022-5-11 02:33:18 | 显示全部楼层
感觉分享
回复

使用道具 举报

PCHUN 发表于 7 天前 | 显示全部楼层
Thanks for sharing
回复 支持 反对

使用道具 举报

xiaojun123手机认证 发表于 7 天前 | 显示全部楼层
谢谢楼主资源
回复 支持 反对

使用道具 举报

再会未来 发表于 7 天前 | 显示全部楼层
谢谢分享
回复

使用道具 举报

发表回复

您需要登录后才可以回帖 登录 | 立即注册

本版积分规则

联系客服 关注微信 下载APP 返回顶部 返回列表