蓝光高清网

搜索
开启左侧

迷失之城4k.The.Lost.City.2022.2160p.WEB-DL.x265.10bit.HDR.DDP5.1.Atmos-4k电影下载—11.67GB

蓝鸟 发表于 2022-5-11 10:34:36 | 显示全部楼层 |阅读模式
迷失之城 豆瓣评分: 6.1分
上映时间:2022年
类型:喜剧 动作 冒险 
地区:美国 
导演:艾伦·尼 亚当·尼
主演:桑德拉·布洛克 查宁·塔图姆
画质标准:4K  封装音轨:DTS-HD.MA 5.1 
简       介
4 [! d1 u- I( }5 ^. J
% P: V3 o( w8 C( h# a/ H8 s
  洛蕾塔·塞琪(桑德拉·布洛克 饰)是一位才华横溢但与世隔绝的作家。在她的畅销爱情冒险小说里,总会出现许多奇异的地方。而作为本书的封面模特,艾伦(查宁·塔图姆 饰)一生都在致力于展现书中英雄角色“达什”的个人魅力。 ” 在与艾伦一起宣传新书时,洛雷塔被一位古怪的亿万富翁(丹尼尔·雷德克里夫 饰)绑架。这位亿万富翁坚信,洛蕾塔的新书能带领他找到失落古城中的宝藏。 与此同时,艾伦为了证明自己可以成为现实中的英雄,而不仅仅是洛蕾塔虚构的人物,决定前去营救她。这对极不对付的搭档需要共同努力,才能在险恶的丛林中生存下来,并在亿万富翁赶到前找到古老的宝藏。
. Q- F- p) Y3 D( D: H
0 y& M9 H/ O% J# t% O影片参数
; z' B4 q3 M9 o! Q
迷失D城 / Lost City of D / 失惊无神闯谜城(港) / 失落谜城(台)/迷失之城4k.The.Lost.City.2022.2160p.WEB-DL.x265.10bit.HDR.DDP5.1.Atmos-4k电影信息
6 D( W" f# V, ]  Y# ~$ l; sVideo
/ `5 p5 H- k' SID : 14 n, X; {! Y. z( s" d# V1 L: e
Format : HEVC
& C6 `" G/ @' MFormat/Info : High Efficiency Video Coding
, `6 C& g* i5 G2 L+ d& rFormat profile : Main 10@L5@High
  V- o% d7 l6 V2 K% ]& QHDR format : SMPTE ST 2086, HDR10 compatible  ?0 X0 a8 i+ i* M! g7 [; }
Codec ID : V_MPEGH/ISO/HEVC( a6 u  \$ V; D+ k
Duration : 1 h 51 min, w6 L+ G0 B& b6 O( a
Bit rate : 14.2 Mb/s
' z& k7 ~1 u3 W) G$ \Width : 3 840 pixels
1 L- ~8 `! }+ |4 l0 Y' ]/ PHeight : 1 608 pixels
# q) D. I2 f, H" j6 {Display aspect ratio : 2.40:15 Q! q: U% X' G9 j& n8 y% q# F
Frame rate mode : Constant
1 C6 Y  m2 M" Y+ A5 v7 T" nFrame rate : 23.976 FPS
7 x2 f2 [* }2 U) v4 WColor space : YUV8 R( W4 r1 P6 c! Y4 `9 b" `) P+ O
Chroma subsampling : 4:2:0 (Type 2)
3 P+ W3 T8 W9 [: H; ]0 D! d" zBit depth : 10 bits
# [. P. G5 H3 K5 f: YBits/(Pixel*Frame) : 0.096
+ S/ T  ?2 H7 h7 S6 h/ C: R: JStream size : 11.1 GiB (95%)
, H" f9 W! e8 v8 P) o! PLanguage : English0 @7 Y1 U$ R  S5 V, O
Default : Yes
, S' `8 I+ v9 }" N1 H* YForced : No
" a, F) w/ G$ U1 {Color range : Limited
. w" Y' u5 z! x, s  {  \& dColor primaries : BT.20209 h2 B( ^5 P, ?: U8 _
Transfer characteristics : PQ* A# \) K6 w/ l3 V9 g: h
Matrix coefficients : BT.2020 non-constant
3 x  n( K" C. t  |+ A4 EMastering display color primaries : Display P3% k/ O# q) q5 k# t/ G
Mastering display luminance : min: 0.0050 cd/m2, max: 1000 cd/m2; |3 a. S9 g( S, d) B
Maximum Content Light Level : 1134 cd/m2" l  |% J( K) `6 n) t
Maximum Frame-Average Light Level : 342 cd/m2
4 U  ?4 f7 M$ X; o) Z# l3 O; o% [' p0 Y& U# O( Y
2 R$ t% S: D' k+ u$ I
Audio
+ Q4 ?# l4 \( j7 N. Z1 NID : 2
! S2 K. P0 V( d3 w6 S) o+ `Format : E-AC-3 JOC
% n6 H' x! Q7 P7 UFormat/Info : Enhanced AC-3 with Joint Object Coding
& s/ Z3 R$ [0 e/ |. R7 A1 L+ SCommercial name : Dolby Digital Plus with Dolby Atmos3 d9 e3 h- N( {6 u' h! Z
Codec ID : A_EAC32 P' w* \* M+ V4 o
Duration : 1 h 51 min+ c4 f5 j  O/ @. `! R5 E
Bit rate mode : Constant8 z6 L: L7 ?8 N# n6 t7 m
Bit rate : 768 kb/s' ~9 Z! k7 Z& P8 p  |7 n7 X
Channel(s) : 6 channels+ V$ [' v: z* P  {/ f* d
Channel layout : L R C LFE Ls Rs5 y8 }. j: Y6 f, E$ y
Sampling rate : 48.0 kHz8 s+ r8 H+ X$ f  z" |' L8 I
Frame rate : 31.250 FPS (1536 SPF)- h* I- K. l) g, {
Compression mode : Lossy0 T2 B( g5 m& |+ P8 P9 e
Stream size : 614 MiB (5%)$ n; K4 G# w7 R: ^
Language : English
. `1 x& A  U) [% r! z, PService kind : Complete Main
$ p) u3 ?' g% q9 j% C" [, DDefault : Yes
1 h8 f* |* l1 A& j, p4 zForced : No
/ L" X8 X1 i3 l4 i) U: R1 k6 cComplexity index : 16
7 b( @) d$ I  w# b! X9 l0 S% N, {Number of dynamic objects : 15
& j; [+ m# K" Q6 O; F9 aBed channel count : 1 channel" G  a3 a& x' \
Bed channel configuration : LFE

+ _$ N! K8 G3 `+ Q蓝光高清网提示您 点击下方附件名称 即可开始下载$ }2 P! N" g3 e( Y2 c4 ~! \% l

, n3 u2 [$ I( m! I迷失D城 / Lost City of D / 失惊无神闯谜城(港) / 失落谜城(台)/迷失之城4k.The.Lost.City.2022.2160p.WEB-DL.x265.10bit.HDR.DDP5.1.Atmos-4k电影下载
: c. I5 c$ Q0 I, ]# t& G
: d0 |' Y: |: _: |; B. [; o迷失之城4k.The.Lost.City.2022.2160p.WEB-DL.x265.10bit.HDR.DDP5.1.Atmo【4k HDR 11.67 GB】) P( d+ H- m7 m

迷失之城4k.The.Lost.City.2022.2160p.WEB-DL.x265.10bit.HDR.DDP5.1.Atmos-NOGRP- 4KSJ.torrent ( 15.24 KB )


  _9 _, h6 m6 u& N& f& Y3 G& f' `2 J: X* J0 o/ N
迷失之城中文字幕下载* q6 m; f. S0 m) J+ P

迷失之城.The.Lost.City.2022.2160p.DDP5.1.Atmos.中文.ass ( 252.48 KB )


1 E+ b" b3 x# {5 g3 M( Q( i$ C+ s7 U% _) ^
加入蓝光高清网VIP会员  无限制下载本站所有资源---点这里

资源下载、资源播放、字幕使用、无法下载等常见问题---点这里
回复

使用道具 举报

全部回复3 显示全部楼层
gdlmxia 发表于 7 天前 | 显示全部楼层
太好啦&萬分感謝版主的無私發佈分享%
回复 支持 反对

使用道具 举报

PCHUN 发表于 7 天前 | 显示全部楼层
謝謝樓主分享
回复 支持 反对

使用道具 举报

hyn2008手机认证 发表于 6 天前 来自手机 | 显示全部楼层
不知道好不好看?先下载!谢谢分享!
回复 支持 反对

使用道具 举报

发表回复

您需要登录后才可以回帖 登录 | 立即注册

本版积分规则

联系客服 关注微信 下载APP 返回顶部 返回列表