本站已运行

蓝光高清网

搜索

迷失之城4k.The.Lost.City.2022.2160p.WEB-DL.x265.10bit.HDR.DDP5.1.Atmos-4k电影下载

 
蓝鸟 发表于 2022-5-11 10:34:36 | 显示全部楼层 |阅读模式
迷失之城 (2022) 豆瓣评分: 6.1分
时长:112 分钟
地区:美国 
类型:喜剧 动作 冒险 
画质:4K 
帧率:
音轨:DTS-HD.MA 5.1 
导演:艾伦·尼 / 亚当·尼
主演:桑德拉·布洛克 / 查宁·塔图姆 / 丹尼尔·雷德克里夫 / 达明·乔伊·伦道夫 / 布拉德·皮特
  • 电影下载
  • 影片简介
  • 影片参数
  • 下载说明
  • 《迷失之城》网盘资源  Cloud storage download


    访问密码
      
    中文字幕


    《迷失之城》BT 下载 推荐使用【迅雷云盘离线下载】【比特彗星】下载
  • 《迷失之城》剧情简介 Film Introduction
      洛蕾塔·塞琪(桑德拉·布洛克 饰)是一位才华横溢但与世隔绝的作家。在她的畅销爱情冒险小说里,总会出现许多奇异的地方。而作为本书的封面模特,艾伦(查宁·塔图姆 饰)一生都在致力于展现书中英雄角色“达什”的个人魅力。 ” 在与艾伦一起宣传新书时,洛雷塔被一位古怪的亿万富翁(丹尼尔·雷德克里夫 饰)绑架。这位亿万富翁坚信,洛蕾塔的新书能带领他找到失落古城中的宝藏。 与此同时,艾伦为了证明自己可以成为现实中的英雄,而不仅仅是洛蕾塔虚构的人物,决定前去营救她。这对极不对付的搭档需要共同努力,才能在险恶的丛林中生存下来,并在亿万富翁赶到前找到古老的宝藏。


    《迷失之城》BT 下载 推荐使用【迅雷云盘离线下载】【比特彗星】下载
  • 《迷失之城》影片INFO Video INFO
    Video
    ID : 1
    Format : HEVC
    Format/Info : High Efficiency Video Coding
    Format profile : Main 10@L5@High
    HDR format : SMPTE ST 2086, HDR10 compatible
    Codec ID : V_MPEGH/ISO/HEVC
    Duration : 1 h 51 min
    Bit rate : 14.2 Mb/s
    Width : 3 840 pixels
    Height : 1 608 pixels
    Display aspect ratio : 2.40:1
    Frame rate mode : Constant
    Frame rate : 23.976 FPS
    Color space : YUV
    Chroma subsampling : 4:2:0 (Type 2)
    Bit depth : 10 bits
    Bits/(Pixel*Frame) : 0.096
    Stream size : 11.1 GiB (95%)
    Language : English
    Default : Yes
    Forced : No
    Color range : Limited
    Color primaries : BT.2020
    Transfer characteristics : PQ
    Matrix coefficients : BT.2020 non-constant
    Mastering display color primaries : Display P3
    Mastering display luminance : min: 0.0050 cd/m2, max: 1000 cd/m2
    Maximum Content Light Level : 1134 cd/m2
    Maximum Frame-Average Light Level : 342 cd/m2

    Audio
    ID : 2
    Format : E-AC-3 JOC
    Format/Info : Enhanced AC-3 with Joint Object Coding
    Commercial name : Dolby Digital Plus with Dolby Atmos
    Codec ID : A_EAC3
    Duration : 1 h 51 min
    Bit rate mode : Constant
    Bit rate : 768 kb/s
    Channel(s) : 6 channels
    Channel layout : L R C LFE Ls Rs
    Sampling rate : 48.0 kHz
    Frame rate : 31.250 FPS (1536 SPF)
    Compression mode : Lossy
    Stream size : 614 MiB (5%)
    Language : English
    Service kind : Complete Main
    Default : Yes
    Forced : No
    Complexity index : 16
    Number of dynamic objects : 15
    Bed channel count : 1 channel
    Bed channel configuration : LFE



    BT 下载 推荐使用【迅雷云盘离线下载】【比特彗星】下载
  • 下载电影三步骤
    1、在《4K电影列表》找到并打开电影详情页,点击BT种子文件或复制磁力链,将BT种子下载到电脑中。
    2、电脑安装《BT下载软件》,免费的推荐使用《UTorrent》下载,收费的推荐使用《115网盘》下载(速度又快又稳).
    3、用BT下载软件,打开BT种子、或将磁力链复制粘贴到BT软件中即可下载。


    本站4K电影版块资源99%是真4K,都是从UHD蓝光碟片中提取而来!本站未发布的4K资源,全网都没有(除非假4K),所以发帖求资源也没用。

    下载速度慢怎么办
    1、正常情况使用《UTorrent》跟着网站发布资源节奏下载速度很快,可以达到宽带最大速度(电信)
    2、推荐使用《115网盘》下载速度又快又稳定,请勿使用迅雷下载;
    3、下载慢是有多方面原因,即依赖种子的热度、也要求是电信宽带(非移动/联通),同时选择对的下载软件和软件设置方法。
    4、使用BT协议下载没有速度,请更新《Trackers服务器》能够增加在线用户(越多越好),该方法使用《UTorrent》下载效果显著。
    更多下载问题参考: 4K电影下载新手学院>>

    多个种子/电影版本区别
    蓝光原盘BDMV
    俗称4K蓝光原盘,也就是从4K UHD蓝光碟中提取出来的源文件,由多个m2ts文件组成,与正版盘完全一致,且包含了光盘所有内容 (影片花絮、字幕、导航菜单、多语言多音轨、HDR 信息)等等,文件体积大,一部电影约有60GB+。此版本资源一般以「BDMV 文件夹」或「BDISO」 (iso) 格式发布;该版本可以用刻录机成带导航的光盘效果。

    DIY蓝光原盘BDMV
    经资源制作组基于蓝光原盘BDMV版本进行第二次DIY的版本,将片头AE特效、画面HDR调色、封装国语音轨、封装中文简体/繁体/英文等多语言字幕,更精彩的是是特效字幕(将电影画面中某些细节翻译成中文字幕)。

    蓝光BD-REMUX
    俗称REMUX,可以视为「音画质无损的精简版」"4K原盘",它其实就是将原盘里多余的一些音轨、花絮、菜单、字幕等东西移除或精简,仅保留主要的视频、主要音轨和部分语言字幕,然后再封装成「单个文件」的 .mkv 格式而来,其音质画质与BDMV蓝光原盘一致,但文件体积上能大幅缩减且成单个文件,在电脑上播放/管理/电视播放/播放器播放和分享起来也更方便。适合追求原盘音画质、不重视花絮周边内容、又希望稍微节省点硬盘空间的朋友。

    WEB-DL/WEBRip/流媒体版本
    WEB-DL 或 WEBRip 格式的影片主要来自 、Amazon Prime Video、Netflix、Hulu、YouTube 等「在线网络高清片源」。尽管这些服务提供了4K分辨率 (部分含 HDR) 的片源,但它们为了在线观看的流畅性,都会将视频画质进行较大幅度「有损压缩」。 WEB-DL 是 Web Download 的意思,指通过技术手段「直接下载」回来的在线视频 WEBRip 很多时候则是通过"屏幕转录"等方式二次录制,会造成多一次的画质损失。



    BT 下载 推荐使用【迅雷云盘离线下载】【比特彗星】下载
迷失D城 / Lost City of D / 失惊无神闯谜城(港) / 失落谜城(台)/迷失之城4k.The.Lost.City.2022.2160p.WEB-DL.x265.10bit.HDR.DDP5.1.Atmos-4k电影下载

迷失之城4k.The.Lost.City.2022.2160p.WEB-DL.x265.10bit.HDR.DDP5.1.Atmo【4k HDR 11.67 GB】

迷失之城4k.The.Lost.City.2022.2160p.WEB-DL.x265.10bit.HDR.DDP5.1.Atmos-NOGRP- 4KSJ.torrent ( 15.24 KB )



迷失之城4K.The.Lost.City.2022.2160p.WEB-DL.x265.10bit.SDR.DDP5.1.Atmos 【4K SDR 16.39 GB】

迷失之城4K.The.Lost.City.2022.2160p.WEB-DL.x265.10bit.SDR.DDP5.1.Atmos.torrent ( 21.5 KB )



迷失之城中文字幕下载

迷失之城.The.Lost.City.2022.2160p.DDP5.1.Atmos.中文.ass ( 252.48 KB )




加入蓝光高清网VIP会员  无限制下载本站所有资源---点这里

资源下载、资源播放、字幕使用、无法下载等常见问题---点这里
回复

使用道具 举报

全部回复5 显示全部楼层
gdlmxia 发表于 2022-5-12 09:28:40 | 显示全部楼层
太好啦&萬分感謝版主的無私發佈分享%
回复 支持 反对

使用道具 举报

PCHUN 发表于 2022-5-12 23:58:20 | 显示全部楼层
謝謝樓主分享
回复 支持 反对

使用道具 举报

hyn2008手机认证 发表于 2022-5-13 11:18:34 来自手机 | 显示全部楼层
不知道好不好看?先下载!谢谢分享!
回复 支持 反对

使用道具 举报

zhangxh727手机认证 发表于 2022-6-7 16:57:21 | 显示全部楼层
支持下,感谢分享!!
回复 支持 反对

使用道具 举报

吴家大少爷手机认证 发表于 2022-10-24 23:40:35 | 显示全部楼层
谢谢楼主分享
回复 支持 反对

使用道具 举报

发表回复

您需要登录后才可以回帖 登录 | 立即注册

本版积分规则

开通会员 帮助中心 返回顶部 返回列表