蓝光高清网

搜索
开启左侧

Lockdown.2022.2160p.WEB-DL.x265.10bit.SDR.DD5.1-4k电影下载—7.67GB

蓝鸟 发表于 2022-5-11 10:43:15 | 显示全部楼层 |阅读模式
Lockdown 豆瓣评分: 6.6分
上映时间:2022年
类型: 
地区:美国 
导演:Massimiliano Cerchi
主演:
画质标准:4K  封装音轨:DTS-HD.MA 5.1 
简       介
  Q# f5 U( R6 p. I- J' f/ S; W, t. g; Y7 Y0 e
        Chaos reigns in Los Angeles when three criminals, led by a psychotic mastermind named McMasters, takes over a police station and threaten to kill everyone in it unless a large ransom is paid. FBI special agent Roger Kinkaid (Michael Pare\') uses his extensive knowledge in a bid to outwit the criminals and save the hostages, but one question remains: even if they get their money, how can they possibly escape?6 T+ g# o6 I" G

/ u. N& P5 F. v; ]6 B* N影片参数
, i0 e4 \- r6 v! `3 |! L* C3 P
Lockdown.2022.2160p.WEB-DL.x265.10bit.SDR.DD5.1-4k电影信息
2 K# h/ @+ J2 o9 M: e4 jVideo4 G: x; r1 `0 v9 c  T5 j
ID : 1
2 l  t  s$ f0 R$ s( Z; p' bFormat : HEVC
! k) z6 e% O1 N! t3 J9 q8 MFormat/Info : High Efficiency Video Coding$ v3 T& \7 h& T/ ]* ]( o, y
Format profile : Main 10@L5@High! m3 p* v' T9 p$ J6 D' ]6 M$ B
Codec ID : V_MPEGH/ISO/HEVC( O. M: [! r4 E( K- w
Duration : 1 h 28 min8 B, y" P6 ]4 A: o$ _+ b4 R
Bit rate : 12.0 Mb/s; v+ z9 j6 G3 K3 K6 z# m( K
Width : 3 828 pixels
( c( M" Q4 a8 J$ o5 vHeight : 2 148 pixels
. ~, P0 ]1 \" a9 {Display aspect ratio : 16:9
7 a/ Y3 U. C8 }+ _+ y# c2 EFrame rate mode : Constant
9 j' J, ^: F2 w3 b, S+ S+ VFrame rate : 23.976 FPS$ b* |( J' G& `  k/ t
Color space : YUV
  G# M% ~* q+ V  X8 |* w7 XChroma subsampling : 4:2:0- q$ t9 F7 x8 ]; }
Bit depth : 10 bits2 m1 l8 [9 X- Q! e# q" K, I
Bits/(Pixel*Frame) : 0.061, g9 ^' s2 W& Y2 u
Stream size : 7.43 GiB (97%)2 g+ ~* A% z! Z  s- ?
Default : Yes3 m8 z7 Y: y1 r9 c2 R; }0 z+ I
Forced : No
1 R) A6 o9 a4 e2 [7 xColor range : Limited$ _  W8 r- [( Y- J0 I8 J
Color primaries : BT.709
0 N1 g3 a  R, U( m+ L: p0 Y' zTransfer characteristics : BT.709/ ]1 n" _& Z2 R
Matrix coefficients : BT.709
$ A0 M2 V+ s! {+ v" H& ?6 d$ ]& p* d

) @4 G8 |) a7 x. e1 u( E) u) ~0 a; dAudio3 p" T% r0 v" c5 a2 @4 e
ID : 20 i* c' @2 F& o$ L
Format : AC-3' d* W, y; [* f; G
Format/Info : Audio Coding 3
, o5 Z6 z0 u% N3 S' GCommercial name : Dolby Digital. Y3 I( W, ]' ?) W' Y9 x. e/ s
Codec ID : A_AC39 n2 t$ w9 J2 C  N6 z% H
Duration : 1 h 28 min, t: l; h  u  W. F' e
Bit rate mode : Constant
: Z! @4 s8 S! Y5 w' l8 tBit rate : 384 kb/s; g3 G+ G# y0 F+ X0 P5 \1 v
Channel(s) : 6 channels
" j0 m/ y) r# gChannel layout : L R C LFE Ls Rs
/ V5 V/ d* \6 `0 [$ _Sampling rate : 48.0 kHz+ U$ c1 Y: c# D' H7 z( j
Frame rate : 31.250 FPS (1536 SPF)* c  G' `  y  [! \
Compression mode : Lossy5 i9 I4 h+ J5 k3 @' e
Stream size : 243 MiB (3%)7 @+ a' q5 {+ R2 @
Language : English4 F" {# D/ a, O) R
Service kind : Complete Main
. X! _  z$ U- B5 P. v5 aDefault : Yes
' s; ^! j2 N, ~" wForced : No
+ a8 _: A+ I& ~4 S; c
蓝光高清网提示您 点击下方附件名称 即可开始下载
5 J3 z& w% o$ Z2 H* d' E% u. i2 L7 e+ u* o' c6 ~9 y& c% y+ `- W
Lockdown.2022.2160p.WEB-DL.x265.10bit.SDR.DD5.1-4k电影下载- {2 N( Y; N3 D6 h1 Q( p

6 J! u2 o8 o: U* cLockdown.2022.2160p.WEB-DL.x265.10bit.SDR.DD5.1【7.67 GB】( G6 d8 E/ a- J. D6 X+ V

Lockdown.2022.2160p.WEB-DL.x265.10bit.SDR.DD5.1-NOGRP- 4KSJ.torrent ( 19.82 KB )

# f/ N$ s. _0 T8 ^

) r' `9 S% X+ T; d$ l( \
加入蓝光高清网VIP会员  无限制下载本站所有资源---点这里

资源下载、资源播放、字幕使用、无法下载等常见问题---点这里
回复

使用道具 举报

全部回复2 显示全部楼层
dongshouba手机认证 发表于 7 天前 | 显示全部楼层
感谢分享
回复

使用道具 举报

PCHUN 发表于 7 天前 | 显示全部楼层
謝謝樓主分享
回复 支持 反对

使用道具 举报

发表回复

您需要登录后才可以回帖 登录 | 立即注册

本版积分规则

联系客服 关注微信 下载APP 返回顶部 返回列表