本站已运行

蓝光高清网

搜索

[剧情片] 风暴狂潮 R.P.M.1970.1080p.BluRay.REMUX.AVC.LPCM.1.0-FGT 24.06GB

蓝鸟 发表于 2022-5-12 08:53:36 | 显示全部楼层 |阅读模式

风暴狂潮 R.P.M.1970.1080p.BluRay.REMUX.AVC.LPCM.1.0-FGT 24.06GB

风暴狂潮 R.P.M.1970.1080p.BluRay.REMUX.AVC.LPCM.1.0-FGT 24.06GB


译  名 风暴狂潮 / Epanastasis kathe lepto
片  名 R.P.M.
年  代 1970
产  地 美国
类  别 剧情
语  言 英语
上映日期 1970
片  长 92 分钟
导  演 斯坦利·克雷默 Stanley Kramer
编  剧 埃里奇·西格尔 Erich Segal
演  员 安东尼·奎恩 Anthony Quinn
       安-玛格丽特 Ann-Margret
       大卫·莱德 David Ladd
       Joseph Torres Sr. Joseph Torres Sr.
       约翰·伦巴 John Zaremba
       约翰·麦克利亚姆 John McLiam
       唐纳德·莫法特 Donald Moffat
       唐·基弗 Don Keefer
       阿兰·休伊特 Alan Hewitt
       Billy Bowles Billy Bowles
       诺曼·伯顿 Norman Burton
       Regis Cordic Regis Cordic
       拉蒙·比厄里 Ramon Bieri
       Frank Alesia Frank Alesia
       加里·洛克伍德 Gary Lockwood
       保罗·温菲尔德 Paul Winfield
       格雷厄姆·贾维斯 Graham Jarvis
       斯坦利·克雷默 Stanley Kramer
       小佩里·博特金 Perry Botkin Jr.
       巴里·德·沃尔宗 Barry De Vorzon
       Michel Hugo Michel Hugo
       威廉·A·里昂 William A. Lyon
       罗伯特·克莱特沃西 Robert Clatworthy
       乔治·詹姆斯·霍普金斯 George James Hopkins
       莫斯·马布里 Moss Mabry
       Fred B. Phillips Fred B. Phillips


影片参数
  1. Video
  2. ID                                       : 1
  3. ID in the original source medium         : 4113 (0x1011)
  4. Format                                   : AVC
  5. Format/Info                              : Advanced Video Codec
  6. Format profile                           : [email protected]
  7. Format settings                          : CABAC / 3 Ref Frames
  8. Format settings, CABAC                   : Yes
  9. Format settings, Reference frames        : 3 frames
  10. Codec ID                                 : V_MPEG4/ISO/AVC
  11. Duration                                 : 1 h 31 min
  12. Bit rate mode                            : Variable
  13. Bit rate                                 : 35.0 Mb/s
  14. Maximum bit rate                         : 40.0 Mb/s
  15. Width                                    : 1 920 pixels
  16. Height                                   : 1 080 pixels
  17. Display aspect ratio                     : 16:9
  18. Frame rate mode                          : Constant
  19. Frame rate                               : 23.976 (24000/1001/189150) FPS
  20. Color space                              : YUV
  21. Chroma subsampling                       : 4:2:0
  22. Bit depth                                : 8 bits
  23. Scan type                                : Progressive
  24. Bits/(Pixel*Frame)                       : 0.704
  25. Stream size                              : 22.4 GiB (93%)
  26. Writing library                          : x264 core 148 r2705 3f5ed56
  27. Encoding settings                        : cabac=1 / ref=4 / deblock=0:-1:-1 / analyse=0x3:0x133 / me=umh / subme=10 / psy=1 / psy_rd=1.00:0.15 / mixed_ref=1 / me_range=24 / chroma_me=1 / trellis=2 / 8x8dct=1 / cqm=0 / deadzone=21,11 / fast_pskip=1 / chroma_qp_offset=-3 / threads=34 / lookahead_threads=2 / sliced_threads=0 / slices=4 / nr=0 / decimate=1 / interlaced=0 / bluray_compat=1 / constrained_intra=0 / bframes=3 / b_pyramid=1 / b_adapt=2 / b_bias=0 / direct=3 / weightb=1 / open_gop=1 / weightp=1 / keyint=24 / keyint_min=1 / scenecut=20 / intra_refresh=0 / rc_lookahead=24 / rc=abr / mbtree=0 / bitrate=35000 / ratetol=1.0 / qcomp=0.60 / qpmin=0 / qpmax=69 / qpstep=4 / vbv_maxrate=40000 / vbv_bufsize=30000 / nal_hrd=vbr / filler=0 / ip_ratio=1.40 / pb_ratio=1.30 / aq=1:0.10
  28. Language                                 : English
  29. Default                                  : No
  30. Forced                                   : No
  31. Color range                              : Limited
  32. Color primaries                          : BT.709
  33. Transfer characteristics                 : BT.709
  34. Matrix coefficients                      : BT.709
  35. Original source medium                   : Blu-ray
  36. Audio #1
  37. ID                                       : 2
  38. ID in the original source medium         : 4352 (0x1100)
  39. Format                                   : PCM
  40. Format settings                          : Little / Signed
  41. Codec ID                                 : A_PCM/INT/LIT
  42. Duration                                 : 1 h 31 min
  43. Bit rate mode                            : Constant
  44. Bit rate                                 : 1 152 kb/s
  45. Channel(s)                               : 1 channel
  46. Sampling rate                            : 48.0 kHz
  47. Frame rate                               : 30.000 FPS (1600 SPF)
  48. Bit depth                                : 24 bits
  49. Stream size                              : 758 MiB (3%)
  50. Title                                    : LPCM 1.0
  51. Language                                 : English
  52. Default                                  : Yes
  53. Forced                                   : No
  54. Original source medium                   : Blu-ray
  55. Audio #2
  56. ID                                       : 3
  57. ID in the original source medium         : 4353 (0x1101)
  58. Format                                   : AC-3
  59. Format/Info                              : Audio Coding 3
  60. Commercial name                          : Dolby Digital
  61. Codec ID                                 : A_AC3
  62. Duration                                 : 1 h 31 min
  63. Bit rate mode                            : Constant
  64. Bit rate                                 : 192 kb/s
  65. Channel(s)                               : 2 channels
  66. Channel layout                           : L R
  67. Sampling rate                            : 48.0 kHz
  68. Frame rate                               : 31.250 FPS (1536 SPF)
  69. Compression mode                         : Lossy
  70. Stream size                              : 126 MiB (0%)
  71. Title                                    : DD 2.0
  72. Language                                 : English
  73. Service kind                             : Complete Main
  74. Default                                  : No
  75. Forced                                   : No
  76. Original source medium                   : Blu-ray
  77. Audio #3
  78. ID                                       : 4
  79. ID in the original source medium         : 4354 (0x1102)
  80. Format                                   : PCM
  81. Format settings                          : Little / Signed
  82. Codec ID                                 : A_PCM/INT/LIT
  83. Duration                                 : 1 h 31 min
  84. Bit rate mode                            : Constant
  85. Bit rate                                 : 1 152 kb/s
  86. Channel(s)                               : 1 channel
  87. Sampling rate                            : 48.0 kHz
  88. Frame rate                               : 30.000 FPS (1600 SPF)
  89. Bit depth                                : 24 bits
  90. Stream size                              : 758 MiB (3%)
  91. Title                                    : LPCM 1.0
  92. Default                                  : No
  93. Forced                                   : No
  94. Original source medium                   : Blu-ray
  95. Text #1
  96. ID                                       : 5
  97. Format                                   : UTF-8
  98. Codec ID                                 : S_TEXT/UTF8
  99. Codec ID/Info                            : UTF-8 Plain Text
  100. Duration                                 : 1 h 31 min
  101. Bit rate                                 : 68 b/s
  102. Count of elements                        : 1317
  103. Stream size                              : 46.1 KiB (0%)
  104. Language                                 : English
  105. Default                                  : Yes
  106. Forced                                   : No
  107. Text #2
  108. ID                                       : 6
  109. Format                                   : UTF-8
  110. Codec ID                                 : S_TEXT/UTF8
  111. Codec ID/Info                            : UTF-8 Plain Text
  112. Duration                                 : 1 h 31 min
  113. Bit rate                                 : 70 b/s
  114. Count of elements                        : 1375
  115. Stream size                              : 47.5 KiB (0%)
  116. Title                                    : SDH
  117. Language                                 : English
  118. Default                                  : No
  119. Forced                                   : No
  120. Text #3
  121. ID                                       : 7
  122. ID in the original source medium         : 4608 (0x1200)
  123. Format                                   : PGS
  124. Muxing mode                              : zlib
  125. Codec ID                                 : S_HDMV/PGS
  126. Codec ID/Info                            : Picture based subtitle format used on BDs/HD-DVDs
  127. Duration                                 : 1 h 31 min
  128. Bit rate                                 : 46.3 kb/s
  129. Count of elements                        : 2760
  130. Stream size                              : 30.4 MiB (0%)
  131. Language                                 : English
  132. Default                                  : No
  133. Forced                                   : No
  134. Original source medium                   : Blu-ray
  135. Menu
  136. 00:00:00.000                             : en:Chapter 01
  137. 00:08:25.463                             : en:Chapter 02
  138. 00:16:24.024                             : en:Chapter 03
  139. 00:27:46.623                             : en:Chapter 04
  140. 00:35:44.350                             : en:Chapter 05
  141. 00:46:37.586                             : en:Chapter 06
  142. 00:54:27.222                             : en:Chapter 07
  143. 01:03:05.156                             : en:Chapter 08
  144. 01:13:17.726                             : en:Chapter 09
  145. 01:25:24.661                             : en:Chapter 10
复制代码

风暴狂潮 R.P.M.1970.1080p.BluRay.REMUX.AVC.LPCM.1.0-FGT 24.06GB

风暴狂潮 R.P.M.1970.1080p.BluRay.REMUX.AVC.LPCM.1.0-FGT 24.06GB

风暴狂潮 R.P.M.1970.1080p.BluRay.REMUX.AVC.LPCM.1.0-FGT 24.06GB

风暴狂潮 R.P.M.1970.1080p.BluRay.REMUX.AVC.LPCM.1.0-FGT 24.06GB



蓝光高清网提示您 点击下方附件即可下载

风暴狂潮 R.P.M.1970.1080p.BluRay.REMUX.AVC.LPCM.1.0-FGT 24.06GB

R.P.M.1970.1080p.BluRay.REMUX.AVC.LPCM.1.0-FGT.torrent ( 30.71 KB )

加入蓝光高清网VIP会员  无限制下载本站所有资源---点这里

资源下载、资源播放、字幕使用、无法下载等常见问题---点这里
回复

使用道具 举报

全部回复0 显示全部楼层

发表回复

您需要登录后才可以回帖 登录 | 立即注册

本版积分规则

楼主

超级版主

热门推荐

开通会员 帮助中心 返回顶部 返回列表