本站已运行

蓝光高清网

搜索

[剧情] 我所认识的凶猛老虎 Wild.Tigers.I.Have.Known.2006.1080p.BluRay.x264.FLAC.2.0-HANDJOB 7.35GB

蓝鸟 发表于 2022-5-12 09:01:52 | 显示全部楼层 |阅读模式

我所认识的凶猛老虎 Wild.Tigers.I.Have.Known.2006.1080p.BluRay.x264.FLAC.2.0-HANDJOB 7.35GB

我所认识的凶猛老虎 Wild.Tigers.I.Have.Known.2006.1080p.BluRay.x264.FLAC.2.0-HANDJOB 7.35GB


译  名 我所认识的凶猛老虎
片  名 Wild Tigers I Have Known
年  代 2006
产  地 美国
类  别 剧情
语  言 英语
上映日期 2006-08-07
豆瓣评分 6.9/10 (306人评价)
片  长 USA: 98 分钟(Sundance Film Festival)
导  演 坎姆·阿切 Cam Archer
编  剧 坎姆·阿切 Cam Archer
演  员  Patrick White
       汤姆·吉尔罗伊 Tom Gilroy
       费尔鲁扎·鲍克 Fairuza Balk
       金·迪肯斯 Kim Dickens
       马尔科姆·斯顿夫 Malcolm Stumpf
       Nick Case Nick Case
       拉尔斯·努德森 Lars Knudsen
       杰伊·范·霍伊 Jay Van Hoy
       坎姆·阿切 Cam Archer
       格斯·范·桑特 Gus Van Sant
       Djuna Bel Djuna Bel
       斯科特·鲁丁 Scott Rudin
       达伦·斯坦 Darren Stein
       基兰·马尔罗尼 Kieran Mulroney
       Aaron Platt Aaron Platt
       坎姆·阿切 Cam Archer
       Nick Case Nick Case

简  介

本片抒情的讲述了一个13岁的少年面对青春期,面对爱,梦想,学校,以及面对性的发现和心理……                                       
                                    这部影片是有史以来我看过的最具渲染力、最有煽情效果的phone sex。整部电影让人看得“起鸡皮疙瘩”。而且两个主角并没有动手“做”,完全只有”说”,但煽动性超强~                                       
                                    小男主角有让人非常过目难忘的表现。Malcolm Stumpf,这是他的第二部电影,第一部是很多前的“The Next Best Thing”。现在的他也才16岁,出道时的他10岁。你要说他美型,其实也还好;你要说他阴柔,其实也还好。但他在电影里的演出,就是会让你完全相信,精神极近解离分裂的女体化,在视觉上是有造成某些冲击的。我不是同性恋,他口口声声这么说;但他其实也不确定,他被他心中所认识的那头猛虎所吞没。                                       
                                    大男主角就真的很俊美了,美国似乎永远不缺这个年纪的新兴男星,Patrick White,...


影片参数
  1. Video
  2. ID                                       : 1
  3. Format                                   : AVC
  4. Format/Info                              : Advanced Video Codec
  5. Format profile                           : [email protected]
  6. Format settings                          : CABAC / 4 Ref Frames
  7. Format settings, CABAC                   : Yes
  8. Format settings, Reference frames        : 4 frames
  9. Codec ID                                 : V_MPEG4/ISO/AVC
  10. Duration                                 : 1 h 28 min
  11. Bit rate                                 : 11.3 Mb/s
  12. Width                                    : 1 920 pixels
  13. Height                                   : 1 080 pixels
  14. Display aspect ratio                     : 16:9
  15. Frame rate mode                          : Constant
  16. Frame rate                               : 23.976 (24000/1001/189150) FPS
  17. Color space                              : YUV
  18. Chroma subsampling                       : 4:2:0
  19. Bit depth                                : 8 bits
  20. Scan type                                : Progressive
  21. Bits/(Pixel*Frame)                       : 0.227
  22. Stream size                              : 6.98 GiB (95%)
  23. Writing library                          : x264 core 164 r3065 ae03d92
  24. Encoding settings                        : cabac=1 / ref=4 / deblock=1:-3:-3 / analyse=0x3:0x133 / me=umh / subme=10 / psy=1 / psy_rd=1.00:0.00 / mixed_ref=1 / me_range=32 / chroma_me=1 / trellis=2 / 8x8dct=1 / cqm=0 / deadzone=21,11 / fast_pskip=0 / chroma_qp_offset=-2 / threads=34 / lookahead_threads=8 / sliced_threads=0 / nr=0 / decimate=0 / interlaced=0 / bluray_compat=0 / constrained_intra=0 / bframes=16 / b_pyramid=2 / b_adapt=2 / b_bias=0 / direct=3 / weightb=1 / open_gop=0 / weightp=2 / keyint=240 / keyint_min=24 / scenecut=40 / intra_refresh=0 / rc_lookahead=60 / rc=crf / mbtree=0 / crf=22.2 / qcomp=0.60 / qpmin=0 / qpmax=69 / qpstep=4 / vbv_maxrate=62500 / vbv_bufsize=78125 / crf_max=0.0 / nal_hrd=none / filler=0 / ip_ratio=1.40 / pb_ratio=1.30 / aq=2:1.00
  25. Default                                  : Yes
  26. Forced                                   : No
  27. Color range                              : Limited
  28. Color primaries                          : BT.709
  29. Transfer characteristics                 : BT.709
  30. Matrix coefficients                      : BT.709
  31. Audio
  32. ID                                       : 2
  33. Format                                   : FLAC
  34. Format/Info                              : Free Lossless Audio Codec
  35. Codec ID                                 : A_FLAC
  36. Duration                                 : 1 h 28 min
  37. Bit rate mode                            : Variable
  38. Bit rate                                 : 591 kb/s
  39. Channel(s)                               : 2 channels
  40. Channel layout                           : L R
  41. Sampling rate                            : 48.0 kHz
  42. Frame rate                               : 11.719 FPS (4096 SPF)
  43. Bit depth                                : 16 bits
  44. Compression mode                         : Lossless
  45. Stream size                              : 374 MiB (5%)
  46. Writing library                          : libFLAC 1.2.1 (UTC 2007-09-17)
  47. Language                                 : English
  48. Default                                  : Yes
  49. Forced                                   : No
  50. Text #1
  51. ID                                       : 3
  52. Format                                   : UTF-8
  53. Codec ID                                 : S_TEXT/UTF8
  54. Codec ID/Info                            : UTF-8 Plain Text
  55. Duration                                 : 1 h 28 min
  56. Bit rate                                 : 41 b/s
  57. Count of elements                        : 975
  58. Stream size                              : 26.5 KiB (0%)
  59. Title                                    : SDH
  60. Language                                 : English
  61. Default                                  : No
  62. Forced                                   : No
  63. Text #2
  64. ID                                       : 4
  65. Format                                   : PGS
  66. Muxing mode                              : zlib
  67. Codec ID                                 : S_HDMV/PGS
  68. Codec ID/Info                            : Picture based subtitle format used on BDs/HD-DVDs
  69. Duration                                 : 1 h 28 min
  70. Bit rate                                 : 19.3 kb/s
  71. Count of elements                        : 1553
  72. Stream size                              : 12.1 MiB (0%)
  73. Language                                 : Spanish
  74. Default                                  : No
  75. Forced                                   : No
  76. Menu
  77. 00:00:00.000                             : :Chapter 1
  78. 00:11:19.929                             : :Chapter 2
  79. 00:21:30.706                             : :Chapter 3
  80. 00:32:11.221                             : :Chapter 4
  81. 00:41:57.932                             : :Chapter 5
  82. 00:52:16.050                             : :Chapter 6
  83. 01:06:18.600                             : :Chapter 7
  84. 01:16:14.653                             : :Chapter 8
复制代码

我所认识的凶猛老虎 Wild.Tigers.I.Have.Known.2006.1080p.BluRay.x264.FLAC.2.0-HANDJOB 7.35GB

我所认识的凶猛老虎 Wild.Tigers.I.Have.Known.2006.1080p.BluRay.x264.FLAC.2.0-HANDJOB 7.35GB

我所认识的凶猛老虎 Wild.Tigers.I.Have.Known.2006.1080p.BluRay.x264.FLAC.2.0-HANDJOB 7.35GB

我所认识的凶猛老虎 Wild.Tigers.I.Have.Known.2006.1080p.BluRay.x264.FLAC.2.0-HANDJOB 7.35GB



蓝光高清网提示您 点击下方附件即可下载

我所认识的凶猛老虎 Wild.Tigers.I.Have.Known.2006.1080p.BluRay.x264.FLAC.2.0-HANDJOB 7.35GB

Wild.Tigers.I.Have.Known.2006.1080p.BluRay.x264.FLAC.2.0-HANDJOB.torrent ( 19.02 KB )

加入蓝光高清网VIP会员  无限制下载本站所有资源---点这里

资源下载、资源播放、字幕使用、无法下载等常见问题---点这里
回复

使用道具 举报

全部回复0 显示全部楼层

发表回复

您需要登录后才可以回帖 登录 | 立即注册

本版积分规则

开通会员 帮助中心 返回顶部 返回列表