蓝光高清网

搜索
开启左侧

致命追缉令 / 亡命追凶 / 双重阴谋 / 双重间谍/双重危机4k.Double.Jeopardy.1999.2160p.WEB-DL.x265.10bit.HDR.DTS-HD.MA.5.1-4k电影下载-21.57 GB

蓝鸟 发表于 7 天前 | 显示全部楼层 |阅读模式
双重危机 豆瓣评分: 7.2分
上映时间:1999年
类型:剧情 惊悚 犯罪 悬疑 
地区:美国 德国 
导演:布鲁斯·贝尔斯福德
主演:汤米·李·琼斯 / 艾什莉·贾德 / 杰伊·布拉泽奥 / 布鲁斯·格林伍德 / 约翰·麦克拉伦
画质标准:4K HDR  封装音轨:DTS-HD.MA 5.1 
本帖最后由 蓝鸟 于 2022-5-12 10:28 编辑
4 b1 f( u! K! R; L6 z! v: k% Z' e, _' s8 h9 ?
简        介
- C3 Z( S( |0 W+ D, {  r! L
8 Z& Z9 q$ D- @4 U8 ~% U  莉比(艾什莉·贾德 Ashley Judd 饰)和丈夫尼克(布鲁斯·格林伍德 Bruce Greenwood 饰)之间的感情十分要好,两人共同养育乖巧可爱的儿子马蒂(本杰明·韦弗 Benjamin Weaver 饰),幸福生活堪称典范。可是,在忽然之间,尼克神秘失踪留下大量血迹,莉比则沦为嫌犯最终锒铛入狱。莉比将马蒂托付给了好友安吉(安娜贝丝·吉什 Annabeth Gish 饰),自己则在狱友玛格丽特(罗马·玛菲娅 Roma Maffia 饰)和伊芙琳(达文尼亚·麦克法登 Davenia McFadden 饰)的帮助下为了洗清罪名而做着不断的努力。
0 t/ {6 D+ {6 a# Y  一晃眼六年过去,塔维斯警官(汤米·李·琼斯 Tommy Lee Jones 饰)成为了获得了假释的莉比的监护人,而此时的莉比发现,尼克不仅没有死亡,甚至改头换面带着儿子和安吉过着隐姓埋名的生活。经历了双重背叛的莉比决定反击,而尼克也绝不会坐以待毙,一场充满了阴谋与危险的恶战即将拉开帷幕。

  ?- Z6 L! u+ \7 k8 B) L: e/ I, q. N1 G% x
5 C2 V* U) m0 H8 ^8 G: u6 z
影片参数( M: k8 I7 O- e9 g6 s+ f3 v& K3 j
致命追缉令 / 亡命追凶 / 双重阴谋 / 双重间谍/双重危机4k.Double.Jeopardy.1999.2160p.WEB-DL.x265.10bit.HDR.DTS-HD.MA.5.1-4k电影信息
( S" c3 R; K. b. e% \: JVideo
' Y0 ]' ?6 q( w! o& p. HID : 12 n0 G' K7 n) u6 F
Format : HEVC
  [3 x( d) y, n) E4 S' ^* H8 |0 rFormat/Info : High Efficiency Video Coding" }. O6 K- J( C
Format profile : Main 10@L5@High1 e$ U& U  y1 n
HDR format : SMPTE ST 2086, HDR10 compatible
# u; k" g3 m/ G7 p# S( M( QCodec ID : V_MPEGH/ISO/HEVC
6 s/ f% N0 j6 ]& ]9 t# mDuration : 1 h 45 min8 D6 i3 n! `. p, A# ^) f
Bit rate : 24.8 Mb/s; Y1 K5 v- s: e( e/ M, {) ~- r7 {6 t* x# T
Width : 3 840 pixels
4 @; d  }5 ~/ ?2 aHeight : 1 600 pixels7 U4 e5 I, A: @+ U* O( }
Display aspect ratio : 2.40:1
" w. K* w2 W8 b. L5 [% i8 j6 `5 VFrame rate mode : Constant
# x- w5 T9 w: _% n8 h- WFrame rate : 23.976 FPS5 u4 p% B- W3 S
Color space : YUV# T! \2 R$ I2 t7 \% |( p( w0 _  U
Chroma subsampling : 4:2:0 (Type 2)& U- X0 o0 }3 A: m4 s; V
Bit depth : 10 bits
2 y4 q' f2 y9 q- ~- GBits/(Pixel*Frame) : 0.168, O8 p7 M; n% @9 V
Stream size : 18.2 GiB (84%)
. ]8 Z1 o8 n0 q8 [, ~! ?Default : Yes  g. e: A" {2 j, h
Forced : No& r7 J, A- ]7 p/ ^7 Y# v
Color range : Limited
% K3 s& ^5 X, V" cColor primaries : BT.2020
- _1 b; B5 O! J5 QTransfer characteristics : PQ  o5 w+ ?. Y/ W
Matrix coefficients : BT.2020 non-constant
6 g5 a# [" n0 }9 E% j4 O5 O$ u  hMastering display color primaries : Display P3
# s) {1 Q. G/ H4 LMastering display luminance : min: 0.0050 cd/m2, max: 1000 cd/m2, {: A: F9 K- M% K/ ~( x4 s7 o
Maximum Content Light Level : 1123 cd/m2
6 Z) ]2 ^/ F# _; ]# H% _Maximum Frame-Average Light Level : 177 cd/m2. s( R% v7 _( }* d% O

1 P5 i% T) T6 ~9 e8 b# v% k% c. m, S

  v6 u2 @9 X) p/ E8 ?0 I2 {Audio #11 i3 b' p/ B9 M) Q' I& o
ID : 2$ e9 \- l+ C) V3 e1 A7 s
Format : DTS XLL
. T) U- i5 a9 r. K: ]& ?Format/Info : Digital Theater Systems
% _3 O, X, D! `6 E# kCommercial name : DTS-HD Master Audio" S2 {; g' B: h9 N
Codec ID : A_DTS9 t$ i! `5 u9 V6 r1 R6 n& y. l
Duration : 1 h 45 min/ G9 Q- O7 l* S) q5 s
Bit rate mode : Variable
  ^' P( b) d0 X5 |' Z0 o& }Bit rate : 4 188 kb/s* F# d0 x( M+ u/ |- R
Channel(s) : 6 channels
) O7 K. |) Z3 k0 r' NChannel layout : C L R Ls Rs LFE" J9 p! T! u3 e% j  y" K
Sampling rate : 48.0 kHz
' |7 V0 U- ]6 m  G" e4 v$ DFrame rate : 93.750 FPS (512 SPF)( z+ [- i# r& M: ?* n; c' ^0 \# r! g
Bit depth : 24 bits: _& D& V; ~6 H/ |" I
Compression mode : Lossless
' ~$ c* A: S2 ?; u. Q# z! GDelay relative to video : 2 s 100 ms1 q, a2 b: G8 _  m7 Y
Stream size : 3.08 GiB (14%)" g# V8 W& D: O( s; d' O2 ~8 T2 @
Title : DTS-HD MA 5.1$ Z7 j) d8 k/ H: H; d2 G$ q; p/ _
Language : English
  z+ r) A5 V7 K( RDefault : Yes
5 `' q& o5 [7 n% K% f( a! ?' OForced : No
; q- g$ Y; a* V, b; m8 Z: {9 v7 r1 R. \+ p! K4 C, p9 @! [
$ z' M' }% U  r- l6 w
Audio #2! P& {1 T3 H2 [5 b$ l; \
ID : 3
. j. k6 y: g% Z2 ~9 v" C2 _4 @Format : AC-39 T9 `( A2 [  e' D7 Q; J
Format/Info : Audio Coding 3; L& Y) @5 D: V4 ~# r: l. l8 D
Commercial name : Dolby Digital
( U  A7 @' H# q! J  j$ GCodec ID : A_AC39 ?+ G9 F+ g! q. V0 o9 x3 o0 L" @7 k
Duration : 1 h 45 min. h5 `' b% ?6 [0 X" a
Bit rate mode : Constant8 T1 M9 \' \' V0 Q1 v& W
Bit rate : 384 kb/s: K- Z" Q. t3 X6 I3 l5 i9 x
Channel(s) : 6 channels
8 W/ w# {" ~# h6 z3 [2 z- g0 MChannel layout : L R C LFE Ls Rs4 A- }% X' F; w! o7 T+ l
Sampling rate : 48.0 kHz
$ U( \- ~/ e& cFrame rate : 31.250 FPS (1536 SPF)& Y$ e+ c/ U: @! Y
Compression mode : Lossy% X$ ?* O/ M1 C& u4 D9 i% [: F, P
Stream size : 289 MiB (1%)' p+ v! d( F$ B6 j- p
Language : English# a: U5 U! B, s' k' R. j$ F
Service kind : Complete Main
: U/ g+ F% d5 rDefault : No
# S2 k# N. s8 N* n8 t. A3 hForced : No+ _: g: S/ a0 J; l( M

8 ~  J# Z% D* h, n

) M! q3 N. r8 A5 LText #1# I' K$ c+ ]. l; M; p
ID : 45 F( b4 b4 l* ]7 Y$ R- _7 W
Format : UTF-8% U7 x: R. `9 d0 \! e; w) w0 a
Codec ID : S_TEXT/UTF8
. g) _, q2 k& N5 T; yCodec ID/Info : UTF-8 Plain Text, z' W* G- O5 Q8 N1 E1 \" S
Duration : 1 h 38 min* C+ o) ^) N! w; \
Bit rate : 60 b/s& T6 U# h# J3 Y
Count of elements : 1248( U" i- ]) B" \- u7 [9 _( ?1 j' o# k
Stream size : 44.1 KiB (0%)
9 Q3 J! M6 Y( F8 Z' N+ d4 |Title : English CC
$ m! ?8 ^' |" x7 {, JLanguage : English
! w. e: F8 S$ r& q2 s0 Y( lDefault : Yes0 o5 a+ p5 ~6 P. ]- y! @& N# m
Forced : No1 ^0 G- z' S7 t. u% I! e4 s5 D

$ r6 B6 R* U2 d8 O  D" t

' _. s! Q9 i* ~/ M1 eText #2
8 U- w' A( }" Y  RID : 5
1 c7 l( {) j' ^* Y+ gFormat : UTF-8
  V* j. D) e4 R+ k2 D8 n' XCodec ID : S_TEXT/UTF8
# ?* Y: k* ~! N, i  ^9 `Codec ID/Info : UTF-8 Plain Text) w/ Z2 T8 r. M* C  M! _
Duration : 1 h 38 min4 |; c* V8 Q) Q* i6 G/ U7 O
Bit rate : 62 b/s/ k+ y7 R7 E$ h) f: \
Count of elements : 787
$ [, S0 g( P9 ~- ^  dStream size : 45.2 KiB (0%)
/ V; W4 H  N" ], |( ^$ `8 YTitle : Arabic4 S% @9 g$ w( a: {2 A- n4 v7 @
Language : Arabic
, C; R6 ^/ l" g4 hDefault : No0 a7 y4 h; E& m9 Q3 @5 W9 A
Forced : No6 V6 V/ n- A& a7 W
2 [# U# ^' G. s  t; w+ i6 {) W
7 d2 _% l3 j# o+ T4 j1 }
Text #3
4 X# S! z2 g8 j8 s! D+ i1 F- UID : 6
0 f9 ?( {5 A# \0 |  d1 vFormat : UTF-8/ U9 t, |: Y* a( w, V
Codec ID : S_TEXT/UTF8
6 h& l5 g- q4 S: sCodec ID/Info : UTF-8 Plain Text
) w, I$ Y5 c8 L/ m: t6 h" ]" P( ZDuration : 1 h 39 min* D: K* x" e  p+ f8 m& y6 S2 c: p
Bit rate : 63 b/s" a9 @& K! W$ l
Count of elements : 738
( S( X! h+ @* ^  x+ n$ P, X2 O6 kStream size : 46.2 KiB (0%)& b# t% P: f1 O! }4 J. F
Title : Bulgarian
* T0 d# V6 I% PLanguage : Bulgarian
" d$ e/ ^4 ?$ ?5 }0 g5 M. K9 QDefault : No
6 X$ h% _1 E* b! S$ aForced : No
5 S4 e4 u( E* E' E4 K4 o! N4 P# D0 z# L" d3 q1 n; w" c

6 L1 V$ Q' c3 E1 \1 g' KText #4  z, U. S$ y& I% Y6 D0 k+ [
ID : 7
* n" k3 J' E& W  [2 wFormat : UTF-89 a7 T/ ?3 V6 C# ?+ X( }
Codec ID : S_TEXT/UTF8
/ \, |/ `7 B) Z' c' C4 r: QCodec ID/Info : UTF-8 Plain Text8 D# b7 X, q. ]& b
Duration : 1 h 38 min
" n+ R1 {/ U. b7 W3 dBit rate : 35 b/s$ A) F: d; z# d- A; }
Count of elements : 926: R7 O* V( h; L- r  l
Stream size : 25.8 KiB (0%)
" T; }. V% U, I9 M  I7 K2 ^) k1 TTitle : Chinese Mandarin Chinese Simplified% j' F8 G) O8 X0 C, h/ c
Language : Chinese
% _4 H2 ~: b' Z' ~# K- Z' Y- VDefault : No
, H) j& s& m" i' s" ]" y7 EForced : No" a, V$ M1 ~( `; I9 q$ P5 q8 x

9 d' V9 S5 o% U$ P/ F

8 M( V9 N: p; rText #5
0 r" L8 D% r9 C- T8 a6 dID : 8
/ _# b) d  {- ]) v- P- [4 j9 V; K0 tFormat : UTF-8
8 R/ P# m5 U2 s2 D& c" eCodec ID : S_TEXT/UTF8, [1 E) h0 T5 ~; e7 t, F, |
Codec ID/Info : UTF-8 Plain Text! w( Y& v3 E. c& o/ r
Duration : 1 h 38 min" V1 X9 W( P3 y4 d/ [8 h
Bit rate : 33 b/s! |  a+ ~8 Z7 M# _
Count of elements : 671. ^' Q" A& @. t) y5 A  ?/ e7 i
Stream size : 24.1 KiB (0%)
; {7 V1 k# F$ j" }: aTitle : Chinese Mandarin Chinese Traditional% T1 Q  D) a* _/ I3 s
Language : Chinese
& ~% Q; g$ b4 Z' o9 ~! VDefault : No6 S! r% v$ K# B7 }
Forced : No
0 ?4 L# H" \, z# m' w2 F3 q, [/ \6 w

) O- t6 g4 _$ H" ~- _% [+ fText #6$ D% c) w8 n" C: r  N+ T: j+ i' E
ID : 9& v# d' y0 v2 F# l. V) }* @8 m
Format : UTF-8
1 Z  ]+ H( H, ?5 y9 B, wCodec ID : S_TEXT/UTF8
' R% W- r$ M' W5 vCodec ID/Info : UTF-8 Plain Text
2 \( M/ X7 t+ |Duration : 1 h 38 min5 }0 J# K& T% d) |5 |
Bit rate : 38 b/s
% _6 ?  S' ?* P# G" O' t2 UCount of elements : 660
8 g4 ?, q1 e7 J$ ~* \8 }Stream size : 27.5 KiB (0%)
+ x/ T7 P, }7 n9 ?, CTitle : Danish3 M7 E: e5 |) M5 x4 N+ J, O! {/ {4 W
Language : Danish
. ?* y: h6 T/ H2 |# P; wDefault : No) \" k4 v: T: m" x  m
Forced : No

6 J' {5 ^# \$ M8 S" B0 I. m: R蓝光高清网提示您 点击下方附件名称 即可开始下载
1 D( }" q, u, \+ i7 \; Z3 w5 w/ J4 y' t- z" ]  X+ h$ V$ l

! B, ?6 G: @* I多版本下载时请注意区分
4 D, f* |( z, k7 {
+ Q+ Z/ {8 C2 ]+ l0 \, ?+ Z
! `& B  \# e; u% m; `0 t5 n
致命追缉令 / 亡命追凶 / 双重阴谋 / 双重间谍/双重危机4k.Double.Jeopardy.1999.2160p.WEB-DL.x265.10bit.HDR.DTS-HD.MA.5.1-4k电影下载
# ~! D& f# m  G; {2 B
& R* L2 o& m3 k1 {. P0 x双重危机4k.Double.Jeopardy.1999.2160p.WEB-DL.x265.10bit.HDR.DTS-HD.MA.5.1自带简繁中字【4k HDR 21.57 GB】
0 O7 J, N' g; w; k1 {" V2 j

双重间谍4k.Double.Jeopardy.1999.2160p.WEB-DL.x265.10bit.HDR.DTS-HD.MA.5.1-NOGRP.torrent ( 27.62 KB )


7 ]' c" G3 M( g0 b
/ U' p& v0 j, p2 k双重危机4k.Double.Jeopardy.1999.2160p.WEB-DL.DD5.1.DV.MP4.x265【4k 杜比视界 18.58 GB】+ O* |& }5 K! o

双重危机4k.Double.Jeopardy.1999.2160p.WEB-DL.DD5.1.DV.MP4.x265-DVSUX.torrent ( 23.85 KB )


! G- I$ C! s- \$ V# ^/ p7 a/ {9 [: ]/ E9 F
双重危机4k.Double.Jeopardy.1999.2160p.WEB-DL.DTS-HD.MA.5.1.DV.MKV.x265【4k 杜比视界 21.56 GB】
9 m. n" f; |  P' z. {" E8 `: S

双重危机4k.Double.Jeopardy.1999.2160p.WEB-DL.DTS-HD.MA.5.1.DV.MKV.x265-DVSUX.torrent ( 27.72 KB )

  B/ {/ }$ d$ O8 M
( s4 O# F6 \' r3 A$ a
双重危机 Double Jeopardy (1999) 致命追緝令中文字幕下载! i$ M1 G( {  w8 L3 ]
https://www.4kii.com/thread-110515-1-1.html* t5 E: m3 n' s. Y& S9 n% v3 t7 g

5 O4 M( q+ y, E* h2 n' [
加入蓝光高清网VIP会员  无限制下载本站所有资源---点这里

资源下载、资源播放、字幕使用、无法下载等常见问题---点这里
回复

使用道具 举报

全部回复3 显示全部楼层
再会未来 发表于 7 天前 | 显示全部楼层
谢谢分享
回复

使用道具 举报

PCHUN 发表于 7 天前 | 显示全部楼层
謝謝樓主分享
回复 支持 反对

使用道具 举报

再会未来 发表于 昨天 20:49 | 显示全部楼层
谢谢分享
回复

使用道具 举报

发表回复

您需要登录后才可以回帖 登录 | 立即注册

本版积分规则

联系客服 关注微信 下载APP 返回顶部 返回列表