蓝光高清网

搜索
开启左侧

Oussekine.S01.FRENCH.2160p.DSNP.WEB-DL.x265.10bit.HDR.DDP5.1-4k法剧下载—26.40 GB

蓝鸟 发表于 7 天前 | 显示全部楼层 |阅读模式
Oussekine 豆瓣评分: 无评分

状态:第一季(完结)
上映时间:2022-05-11
类型: 
地区:法国
导演:Antoine Chevrollier
主演:西娅姆·阿巴斯 / 赛义德·艾尔·阿拉米
画质标准:4K(3840x2160) 封装音轨:5.1声道 音轨编码:其他DD
剧情简介
  由四部分组成的 Star 原创迷你系列,探讨了 1986 年 12 月 5 日的可怕真实事件,这导致了一位名叫 Malik Oussekine 的年轻学生的死亡。该系列以他的家人为正义而战为中心,将探讨这起备受瞩目的案件对法国社会的巨大影响....
影片参数
Oussekine.S01.FRENCH.2160p.DSNP.WEB-DL.x265.10bit.HDR.DDP5.1-4k法剧信息
Video
ID : 1
Format : HEVC
Format/Info : High Efficiency Video Coding
Format profile : Main 10@L5@High
HDR format : SMPTE ST 2086, HDR10 compatible
Codec ID : V_MPEGH/ISO/HEVC
Duration : 1 h 3 min
Bit rate : 16.1 Mb/s
Width : 3 840 pixels
Height : 2 160 pixels
Display aspect ratio : 16:9
Frame rate mode : Constant
Frame rate : 25.000 FPS
Color space : YUV
Chroma subsampling : 4:2:0
Bit depth : 10 bits
Bits/(Pixel*Frame) : 0.078
Stream size : 7.17 GiB (98%)
Default : Yes
Forced : No
Color range : Limited
Color primaries : BT.2020
Transfer characteristics : PQ
Matrix coefficients : BT.2020 non-constant
Mastering display color primaries : BT.2020
Mastering display luminance : min: 0.0001 cd/m2, max: 1000 cd/m2


Audio
ID : 2
Format : E-AC-3
Format/Info : Enhanced AC-3
Commercial name : Dolby Digital Plus
Codec ID : A_EAC3
Duration : 1 h 3 min
Bit rate mode : Constant
Bit rate : 256 kb/s
Channel(s) : 6 channels
Channel layout : L R C LFE Ls Rs
Sampling rate : 48.0 kHz
Frame rate : 31.250 FPS (1536 SPF)
Compression mode : Lossy
Stream size : 117 MiB (2%)
Title : French
Language : French
Service kind : Complete Main
Default : No
Forced : No


Text #1
ID : 3
Format : UTF-8
Codec ID : S_TEXT/UTF8
Codec ID/Info : UTF-8 Plain Text
Duration : 1 h 1 min
Bit rate : 74 b/s
Count of elements : 867
Stream size : 33.8 KiB (0%)
Title : English
Language : English
Default : Yes
Forced : No


Text #2
ID : 4
Format : UTF-8
Codec ID : S_TEXT/UTF8
Codec ID/Info : UTF-8 Plain Text
Duration : 1 h 1 min
Bit rate : 74 b/s
Count of elements : 867
Stream size : 33.8 KiB (0%)
Title : English (SDH)
Language : English
Default : No
Forced : No


Text #3
ID : 5
Format : UTF-8
Codec ID : S_TEXT/UTF8
Codec ID/Info : UTF-8 Plain Text
Duration : 1 h 3 min
Bit rate : 53 b/s
Count of elements : 740
Stream size : 25.1 KiB (0%)
Title : Chinese Simplified
Language : Chinese
Default : No
Forced : No


Text #4
ID : 6
Format : UTF-8
Codec ID : S_TEXT/UTF8
Codec ID/Info : UTF-8 Plain Text
Duration : 1 h 3 min
Bit rate : 51 b/s
Count of elements : 741
Stream size : 23.9 KiB (0%)
Title : Chinese Traditional
Language : Chinese
Default : No
Forced : No


Text #5
ID : 7
Format : UTF-8
Codec ID : S_TEXT/UTF8
Codec ID/Info : UTF-8 Plain Text
Duration : 1 h 3 min
Bit rate : 58 b/s
Count of elements : 733
Stream size : 27.2 KiB (0%)
Title : Czech
Language : Czech
Default : No
Forced : No


Text #6
ID : 8
Format : UTF-8
Codec ID : S_TEXT/UTF8
Codec ID/Info : UTF-8 Plain Text
Duration : 1 h 3 min
Bit rate : 60 b/s
Count of elements : 735
Stream size : 28.3 KiB (0%)
Title : Danish
Language : Danish
Default : No
Forced : No


Text #7
ID : 9
Format : UTF-8
Codec ID : S_TEXT/UTF8
Codec ID/Info : UTF-8 Plain Text
Duration : 1 h 3 min
Bit rate : 59 b/s
Count of elements : 674
Stream size : 27.9 KiB (0%)
Title : Dutch
Language : Dutch
Default : No
Forced : No


蓝光高清网提示您 点击下方附件名称 即可开始下载


多版本下载时请注意区分


Oussekine.S01.FRENCH.2160p.DSNP.WEB-DL.x265.10bit.HDR.DDP5.1-4k法剧下载

Oussekine.S01.FRENCH.2160p.DSNP.WEB-DL.x265.10bit.HDR.DDP5.1【4k HDR 26.40 GB】

Oussekine.S01.FRENCH.2160p.DSNP.WEB-DL.x265.10bit.HDR.DDP5.1-AKi.torrent ( 33.91 KB )



Oussekine.S01.FRENCH.2160p.DSNP.WEB-DL.DDP5.1.DV.MP4.x265【4k 杜比视界 26.91GB】

Oussekine.S01.FRENCH.2160p.DSNP.WEB-DL.DDP5.1.DV.MP4.x265-DVSUX.torrent ( 34.61 KB )



Oussekine.S01.FRENCH.2160p.DSNP.WEB-DL.DDP5.1.DV.MKV.x265【4k 杜比视界 26.91 GB】

Oussekine.S01.FRENCH.2160p.DSNP.WEB-DL.DDP5.1.DV.MKV.x265-AKi.torrent ( 34.56 KB )


加入蓝光高清网VIP会员  无限制下载本站所有资源---点这里

资源下载、资源播放、字幕使用、无法下载等常见问题---点这里
回复

使用道具 举报

全部回复0 显示全部楼层

发表回复

您需要登录后才可以回帖 登录 | 立即注册

本版积分规则

联系客服 关注微信 下载APP 返回顶部 返回列表